<?xml version="1.0" standalone="no"?>
<!DOCTYPE svg PUBLIC "-//W3C//DTD SVG 1.1//EN" "http://www.w3.org/Graphics/SVG/1.1/DTD/svg11.dtd" >
<svg xmlns="http://www.w3.org/2000/svg">
<metadata></metadata>
<defs>
<font id="entypo-webfontwebfont" horiz-adv-x="1054" >
<font-face units-per-em="2048" ascent="1741" descent="-307" />
<missing-glyph horiz-adv-x="500" />
<glyph unicode="&#xd;" horiz-adv-x="340" />
<glyph unicode="&#x2000;" horiz-adv-x="436" />
<glyph unicode="&#x2001;" horiz-adv-x="872" />
<glyph unicode="&#x2002;" horiz-adv-x="436" />
<glyph unicode="&#x2003;" horiz-adv-x="872" />
<glyph unicode="&#x2004;" horiz-adv-x="290" />
<glyph unicode="&#x2005;" horiz-adv-x="218" />
<glyph unicode="&#x2006;" horiz-adv-x="145" />
<glyph unicode="&#x2007;" horiz-adv-x="145" />
<glyph unicode="&#x2008;" horiz-adv-x="109" />
<glyph unicode="&#x2009;" horiz-adv-x="174" />
<glyph unicode="&#x200a;" horiz-adv-x="48" />
<glyph unicode="&#x202f;" horiz-adv-x="174" />
<glyph unicode="&#x205f;" horiz-adv-x="218" />
<glyph unicode="&#xe000;" horiz-adv-x="512" d="M0 0z" />
<glyph unicode="&#xf000;" horiz-adv-x="626" d="M22 -37q-20 59 21 118q43 61 119 87q87 30 162 4v668h82q0 -44 46 -100q44 -52 93 -102q46 -47 62 -122q17 -76 -39 -158q-21 -36 -28 -16v16q12 19 7 58q-5 42 -13 80q-10 42 -46 75.5t-82 40.5v-548q2 -58 -43 -103.5t-103 -66.5q-74 -29 -146 -8q-71 20 -92 77z" />
<glyph unicode="&#xf001;" horiz-adv-x="788" d="M24 -60q-19 50 6 100q21 45 77 71t119 14v606l547 119v-721q2 -49 -33.5 -87t-85.5 -56q-64 -24 -111 -8.5t-65 65.5q-18 49 8 99q22 44 77 70t118 16v384l-363 -84v-502q0 -48 -35.5 -86t-84.5 -56q-65 -23 -111.5 -8.5t-62.5 64.5z" />
<glyph unicode="&#xf002;" horiz-adv-x="747" d="M16 0v717q0 42 30 72t72 30h512q43 0 72.5 -29.5t29.5 -72.5v-717q0 -42 -30 -72t-72 -30h-512q-41 0 -71.5 30.5t-30.5 71.5zM200 137q11 -31 53 -45t88 0q90 30 90 100v269q31 -5 53.5 -30t21.5 -56q-2 -27 -3 -43q-4 -10 2 -10q5 0 12 10q33 45 23 94q-8 50 -33 82 q-7 10 -51 68q-25 34 -25 55h-61v-377q-42 16 -92 -2q-38 -12 -64 -45t-14 -70z" />
<glyph unicode="&#xf003;" horiz-adv-x="838" d="M16 446q0 132 92 224q92 94 223 94q130 0 229 -98q98 -97 98 -228q0 -90 -46 -166l194 -192q30 -35 6 -64l-47 -46q-37 -34 -69 0l-196 194q-74 -43 -159 -43q-131 0 -228 97.5t-97 227.5zM112 446q0 -90 69.5 -159.5t159.5 -69.5t154.5 64.5t64.5 156.5q0 90 -70 159 q-68 69 -159 69q-90 0 -154.5 -65t-64.5 -155z" />
<glyph unicode="&#xf004;" horiz-adv-x="954" d="M20 30q-14 40 6 58l418 418q-6 44 3 93.5t27 68.5l140 139q24 29 93.5 4t132.5 -88q65 -63 88 -133t-6 -94l-136 -138q-19 -18 -68.5 -27t-93.5 -3l-418 -418q-18 -18 -58 -6q-38 11 -76 49.5t-52 76.5zM371 349q-5 -21 11 -44q33 -33 82 15q47 46 14 84q-22 15 -44 8.5 t-40 -23.5q-18 -19 -23 -40zM650 770q-4 -4 2 -28q6 -31 29 -70t45 -62q24 -24 63 -47t70 -29q25 -6 28.5 -2t-3.5 28q-19 70 -78 130q-60 60 -128 78q-24 6 -28 2z" />
<glyph unicode="&#xf005;" horiz-adv-x="952" d="M16 110v378q0 21 20 10l393 -205q17 -10 47 -10.5t48 10.5l392 205q21 11 21 -10v-378q0 -16 -17.5 -32t-33.5 -16h-820q-16 0 -33 16t-17 32zM18 641q2 15 26 15h866q40 0 21 -34q-8 -15 -25 -22q-8 -4 -99 -52l-185 -100q-94 -50 -98 -52q-17 -10 -48 -11q-30 0 -47 11 q-4 2 -99 52l-184 100q-92 48 -100 52q-32 18 -28 41z" />
<glyph unicode="&#xf006;" horiz-adv-x="911" d="M16 500q0 94 71 160q63 59 155 59q90 0 156 -59l58 -54l59 54q63 59 153 59q91 0 156 -59q72 -66 72 -160t-72 -162l-368 -338l-369 338q-71 68 -71 162z" />
<glyph unicode="&#xf007;" horiz-adv-x="911" d="M16 498q0 94 71 160q65 59 155 59q92 0 154 -59l60 -54l57 54q65 59 155.5 59t155.5 -59q72 -66 72 -160t-72 -160l-368 -338l-369 338q-71 66 -71 160zM98 498q0 -68 44 -107l314 -293l313 293q43 41 43 107t-39 102q-39 39 -105 39q-52 0 -106 -49l-106 -94l-109 94 q-49 49 -105 49q-65 0 -104.5 -38t-39.5 -103z" />
<glyph unicode="&#xf008;" horiz-adv-x="931" d="M16 465h327l123 344l123 -344h327l-268 -201l96 -356l-278 213l-278 -213l96 356z" />
<glyph unicode="&#xf009;" horiz-adv-x="931" d="M16 465h327l123 344l123 -344h327l-268 -201l96 -356l-278 213l-278 -213l96 356zM230 393l146 -117l-64 -182l154 127l154 -127l-64 182l148 117l-180 -4l-58 207l-56 -207z" />
<glyph unicode="&#xf00a;" horiz-adv-x="993" d="M16 6q0 51 208 125q96 35 132 71q34 34 34 97q0 23 -22 50t-33 75q-3 22 -23 26q-19 6 -24 62q0 33 14 39l4 4q-7 47 -12 90q-4 55 42 115t161 59.5t162 -60t41 -114.5l-13 -90q19 -8 19 -43q-6 -56 -24 -62q-20 -4 -24 -26q-6 -48 -32 -76q-23 -26 -23 -49q0 -61 36 -97 q35 -35 130 -71q209 -73 209 -125v-108h-962v108z" />
<glyph unicode="&#xf00b;" d="M16 -92v188q0 46 86 80q74 30 106 66q28 31 28 90q0 22 -19 45t-25 69q-2 10 -19 23q-15 11 -21 57q0 27 11 37l4 2q-2 19 -5 47l-6 37q-4 51 35 105.5t130 54.5t130 -54.5t33 -105.5l-10 -84q14 -8 14 -39q-4 -46 -20 -57q-18 -13 -18 -23q-6 -46 -26 -69t-20 -45 q0 -58 29 -90q31 -36 107 -66q186 -80 186 -127v-141h-710zM601 467q0 25 13 31q-10 40 -8.5 74.5t22.5 66.5q28 41 98 41t98 -41q30 -41 25 -80l-9 -61q13 -6 13 -31q-1 -35 -15 -43q-12 -8 -14 -16q-6 -36 -19 -52.5t-13 -33.5q0 -44 21 -68t79 -49q116 -48 133 -82 q6 -7 9 -63q4 -72 6 -103v-49h-230v154q0 55 -30 82q-34 30 -158 92q40 30 40 86q0 17 -13 33.5t-19 52.5q-2 8 -14 16q-14 8 -15 43z" />
<glyph unicode="&#xf00c;" d="M16 -102v206q42 17 84 27q97 35 132 71q36 36 36 97q0 23 -24 49q-25 28 -32 76q-1 12 -24 26q-21 13 -25 62q0 33 14 39l4 4q-1 6 -3 19q-14 55 -8.5 98.5t40.5 87.5q47 60 163.5 59.5t163.5 -60t43 -114.5l-14 -90q19 -8 18 -43q-4 -56 -23 -62q-21 -4 -23 -26 q-10 -47 -34 -75q-24 -29 -24 -50q0 -61 37 -97t133 -71q184 -67 184 -125v-108h-818zM630 307v103h154v153h102v-153h154v-103h-154v-153h-102v153h-154z" />
<glyph unicode="&#xf00d;" horiz-adv-x="1034" d="M16 41v61h102v103h-102v102h102v103h-102v102h102v102h-102v62q0 18 11.5 29.5t28.5 11.5h922q18 0 29.5 -12t11.5 -29v-62h-103v-102h103v-102h-103v-103h103v-102h-103v-103h103v-61q0 -17 -12.5 -29t-28.5 -12h-922q-16 0 -28 12t-12 29zM404 205l256 153l-256 154 v-307z" />
<glyph unicode="&#xf00e;" d="M18 536q-12 40 22 54l696 254q38 12 52 -25l104 -289h-102l-128 154l-218 -154h-185q-53 0 -92 -40t-39 -92v-164zM220 -86v484q0 16 11 28t28 12h741q17 0 28.5 -12t11.5 -28v-484q0 -16 -11.5 -28.5t-28.5 -12.5h-741q-17 0 -28 12.5t-11 28.5zM331 -24h612v166 l-73 163l-170 -61l-134 -136l-141 174l-94 -218v-88z" />
<glyph unicode="&#xf00f;" d="M16 51v461q0 42 30 72t72 30h122q29 0 42 31l30 95q10 28 42 28h348q30 0 40 -28l31 -95q13 -31 41 -31h123q43 0 73 -29.5t30 -72.5v-461q0 -42 -30.5 -72t-72.5 -30h-819q-41 0 -71.5 30.5t-30.5 71.5zM272 307q0 -107 74.5 -181.5t181 -74.5t181.5 74.5t75 181.5 t-75 181.5t-181.5 74.5t-181 -74.5t-74.5 -181.5zM374 307q0 63 45.5 108.5t108.5 45.5q64 0 108.5 -45.5t44.5 -108.5t-45.5 -108t-108 -45t-108 45t-45.5 108zM866 477q0 -15 10 -26t26 -11q14 0 24.5 11.5t10.5 26t-10.5 24.5t-24.5 10q-37 0 -36 -35z" />
<glyph unicode="&#xf010;" horiz-adv-x="645" d="M16 133v93q0 82 82 81h92q82 1 82 -81v-93q0 -82 -82 -82h-92q-82 0 -82 82zM16 492v92q0 82 82 82h92q82 0 82 -82v-92q0 -82 -82 -82h-92q-82 0 -82 82zM374 133v93q0 82 82 81h92q82 0 82 -81v-93q0 -82 -82 -82h-92q-82 0 -82 82zM374 492v92q0 82 82 82h92 q82 0 82 -82v-92q0 -82 -82 -82h-92q-82 0 -82 82z" />
<glyph unicode="&#xf011;" horiz-adv-x="747" d="M16 153.5q0 20.5 14.5 36t35.5 15.5h615q21 0 36 -15.5t15 -36t-16 -36t-35 -15.5h-615q-19 0 -34.5 15.5t-15.5 36zM16 358.5q0 20.5 14.5 36t35.5 15.5h615q21 0 36 -15.5t15 -36t-16 -36t-35 -15.5h-615q-19 0 -34.5 15.5t-15.5 36zM16 563q0 21 14.5 36t35.5 15h615 q21 0 36 -15t15 -36t-16 -36t-35 -15h-615q-19 0 -34.5 15t-15.5 36z" />
<glyph unicode="&#xf012;" horiz-adv-x="713" d="M26.5 350.5q23.5 40.5 68.5 34.5q29 -5 49 -29l120 -158l304 486q15 24 41.5 31t56.5 -9q23 -15 30.5 -41.5t-8.5 -56.5l-358 -573q-21 -33 -58 -33l-2 -2q-34 0 -57 28l-185 242q-25 40 -1.5 80.5z" />
<glyph unicode="&#xf013;" horiz-adv-x="512" d="M15.5 154.5q0.5 26.5 16.5 43.5l141 160l-141 162q-17 18 -16.5 44.5t16.5 43.5q17 17 43.5 16.5t44.5 -16.5l135 -156l135 156q18 17 44.5 16.5t44 -17.5t17.5 -43t-18 -44l-141 -162l141 -160q18 -18 18 -43.5t-17.5 -43t-44 -17.5t-44.5 16l-135 156l-135 -156 q-18 -16 -44.5 -16t-43.5 16q-17 18 -16.5 44.5z" />
<glyph unicode="&#xf014;" horiz-adv-x="890" d="M16 358q0 178 126 304t304 126t304 -126t126 -304t-126 -304t-304 -126t-304 126t-126 304zM200 203l90 -89l156 156l157 -156l88 89l-157 155l157 158l-88 88l-157 -156l-156 156l-90 -88l158 -158z" />
<glyph unicode="&#xf015;" horiz-adv-x="849" d="M16 51v615q0 42 30 72t72 30h614q43 0 72.5 -30t29.5 -72v-615q0 -42 -30 -72t-72 -30h-614q-41 0 -71.5 30.5t-30.5 71.5zM179 203l91 -89l155 156l157 -156l88 89l-157 155l157 158l-88 88l-157 -156l-155 156l-91 -88l158 -158z" />
<glyph unicode="&#xf016;" horiz-adv-x="624" d="M16 358.5q0 51.5 30 51.5h215v214q0 31 51.5 31.5t51.5 -31.5v-214h214q31 0 31.5 -51.5t-31.5 -51.5h-214v-215q0 -30 -51.5 -30t-51.5 30v215h-215q-30 0 -30 51.5z" />
<glyph unicode="&#xf017;" horiz-adv-x="890" d="M16 358q0 178 126 304t304 126t304 -126t126 -304t-126 -304t-304 -126t-304 126t-126 304zM188 307h206v-207h104v207h206v105h-206v206h-104v-206h-206v-105z" />
<glyph unicode="&#xf018;" horiz-adv-x="849" d="M16 51v615q0 42 30 72t72 30h614q43 0 72.5 -30t29.5 -72v-615q0 -42 -30 -72t-72 -30h-614q-41 0 -71.5 30.5t-30.5 71.5zM169 307h205v-205h102v205h205v103h-205v204h-102v-204h-205v-103z" />
<glyph unicode="&#xf019;" horiz-adv-x="624" d="M16 358.5q0 51.5 30 51.5h532q31 0 31.5 -51.5t-31.5 -51.5h-532q-30 0 -30 51.5z" />
<glyph unicode="&#xf01a;" horiz-adv-x="890" d="M16 358q0 178 126 304t304 126t304 -126t126 -304t-126 -304t-304 -126t-304 126t-126 304zM188 307h516v105h-516v-105z" />
<glyph unicode="&#xf01b;" horiz-adv-x="849" d="M16 51v615q0 42 30 72t72 30h614q43 0 72.5 -30t29.5 -72v-615q0 -42 -30 -72t-72 -30h-614q-41 0 -71.5 30.5t-30.5 71.5zM169 307h512v103h-512v-103z" />
<glyph unicode="&#xf01c;" horiz-adv-x="624" d="M16 538q4 132 78 206.5t208 74.5q133 0 219 -61q88 -64 89 -188q0 -66 -44 -128q-13 -21 -90 -82l-47 -30q-42 -36 -49 -62q-7 -18 -8 -45q0 -15 -16 -14h-132q-16 0 -16 12q5 101 28 127q27 37 107 92l25 14q22 17 34 36q29 44 29 71q0 41 -27 80q-29 37 -94 37 q-69 0 -96 -45q-28 -42 -28 -95h-170zM192 6q2 46 32 74t76 26q45 0 74.5 -30.5t27.5 -75.5q-2 -46 -32 -74t-76 -26q-46 0 -75 30t-27 76z" />
<glyph unicode="&#xf01d;" horiz-adv-x="972" d="M16 352q-4 195 132 335q138 141 332 142t334 -133q138 -134 144 -330q2 -196 -134 -334q-138 -141 -332 -144q-196 -2 -334 134q-142 136 -142 330zM302 465h112v4q0 27 17 55q17 25 55 25q42 0 54 -21q16 -19 16 -44q0 -16 -10 -31.5t-19.5 -23.5t-27 -20.5t-23.5 -17.5 q-26 -21 -39 -35q-13 -20 -18 -80v-8h111v4q0 42 32 66l29 18q47 35 57 52q26 36 27 80q0 78 -53.5 117.5t-139.5 39.5t-131.5 -45.5t-48.5 -130.5v-4zM408 144q0 -30 20 -50t48 -22h2q30 0 50 19t20 49q2 30 -17.5 49.5t-50.5 19.5h-2q-28 0 -48 -18.5t-22 -46.5z" />
<glyph unicode="&#xf01e;" horiz-adv-x="501" d="M16 334q92 80 193 129t155 49q80 0 36 -166l-72 -272q-16 -66 7 -66q46 0 121 62l30 -42q-86 -88 -179 -135t-142 -47q-103 0 -55 182l61 261q15 57 0 57q-13 0 -55 -18t-74 -39zM240 744q0 46 36 86t100 40q47 0 74.5 -26.5t27.5 -71.5q0 -52 -41 -90.5t-96 -38.5 q-48 0 -75.5 26.5t-25.5 74.5z" />
<glyph unicode="&#xf01f;" horiz-adv-x="972" d="M16 352q-4 195 132 335q138 141 332 142t334 -133q138 -134 144 -330q2 -196 -134 -334q-138 -141 -332 -144q-196 -2 -334 134q-142 136 -142 330zM320 354l17 -26q53 34 75 34q13 0 0 -34l-36 -156q-27 -106 34 -106q30 0 86 26q55 26 109 80l-18 24q-49 -36 -74 -36 q-15 0 -4 38l43 164q26 99 -22 99q-30 0 -92 -30q-62 -31 -118 -77zM444 598q-2 -30 16 -46t49 -16q37 0 61.5 22t24.5 56q0 60 -61 60q-44 0 -67 -25t-23 -51z" />
<glyph unicode="&#xf021;" horiz-adv-x="901" d="M16 482l214 184v-113h554q42 0 72 -30.5t30 -72.5v-296q0 -42 -31 -72.5t-71 -30.5h-707v143h665v216h-512v-113z" />
<glyph unicode="&#xf022;" horiz-adv-x="952" d="M16 316.5q-4 11.5 12 27.5l409 412q17 16 39 16t39 -16l409 -412q16 -16 12 -27.5t-28 -11.5h-86v-317q0 -23 -6 -32t-26 -9h-210v317h-208v-317h-199q-25 0 -34 8t-9 33v317h-86q-24 0 -28 11.5z" />
<glyph unicode="&#xf023;" horiz-adv-x="849" d="M16 142q0 80 56 136l152 152q42 40 88 62t97.5 17.5t93.5 -44.5q17 -17 16.5 -37t-16.5 -37q-37 -31 -72 0q-51 49 -135 -35l-152 -149q-26 -27 -26 -65t27 -64.5t64 -26.5q38 0 65 27l42 41q15 15 35 14q19 0 37 -14q32 -35 0 -72l-43 -41q-57 -58 -135 -57 q-80 0 -137 57.5t-57 135.5zM333 284q0 22 14.5 37t35.5 15t36 -14q51 -50 125 24l162 160q28 28 28 66t-28 63q-26 27 -57 31t-62 -21l-51 -51q-18 -14 -38 -14t-34 14q-35 35 0 72l51 51q59 57 133 52t129 -63q57 -57 57 -134q0 -80 -57 -138l-161 -162q-76 -73 -154 -74 q-64 0 -115 52q-15 14 -14 34z" />
<glyph unicode="&#xf024;" horiz-adv-x="992" d="M16 100q-2 99 86 195l508 508q80 82 178 55q44 -12 80 -48t48 -81q27 -99 -55 -180l-485 -485q-41 -42 -90 -48q-50 -4 -82 29q-30 25 -27.5 76t47.5 94l340 342q24 27 51 0t1 -51l-340 -340q-46 -45 -21 -72q31 -20 71 20l486 486q51 51 35 110q-17 62 -78 78 q-55 15 -111 -36l-506 -506q-66 -78 -65 -146t53 -120q64 -57 131 -51.5t133 63.5l508 506q25 24 52 0q25 -23 0 -50l-508 -508q-84 -84 -191 -84q-105 0 -174 74q-75 73 -75 170z" />
<glyph unicode="&#xf025;" horiz-adv-x="747" d="M16 26v400q0 22 15 42t35 20h103v71q0 111 51.5 173t153 62t153 -62t51.5 -173v-71h92q21 0 41.5 -20t20.5 -42v-400q0 -48 -49 -67l-61 -19q-42 -16 -98 -16h-298q-58 0 -100 16l-62 19q-48 19 -48 67zM272 488h204v92q0 50 -27 81t-75 31t-75 -31t-27 -81v-92z" />
<glyph unicode="&#xf026;" horiz-adv-x="747" d="M16 0v400q0 22 15 41.5t35 19.5h410v143q0 112 -102 112.5t-102 -112.5v-41h-103v21q0 110 51.5 172.5t153.5 62.5q205 0 204 -235v-123h92q20 0 41 -20.5t21 -40.5v-400q0 -22 -15 -41t-34 -25l-61 -20q-52 -16 -98 -16h-298q-48 0 -100 16l-62 20q-19 6 -33.5 25 t-14.5 41z" />
<glyph unicode="&#xf027;" d="M16 358.5q0 13.5 20 45.5q49 76 166 152q58 39 146.5 64t179 25t178.5 -25t147 -64q119 -80 166 -152q21 -32 21 -45.5t-21 -44.5q-50 -76 -166 -153q-59 -39 -147 -64t-178.5 -25t-179 25t-146.5 64q-114 73 -166 153q-20 31 -20 44.5zM300 358q0 -90 66 -154t161 -64 t161 64t66 154q0 92 -66 157t-161 65t-161 -65t-66 -157zM414 358q0 48 33 79.5t81 31.5q4 0 7 -3t3 -9.5v-11.5t-3 -14t-4 -14t-3 -11l-2 -8q-8 -26 2 -40q8 -8 37 -2q11 2 29 6t22 6q22 4 26 -10q0 -44 -34 -76t-80 -32t-80 32t-34 76z" />
<glyph unicode="&#xf028;" horiz-adv-x="1013" d="M16.5 217q3.5 21 21.5 33l475 336q25 18 55 18h162q30 0 50 -26l28 -42q172 134 116 294q-10 28 19 40q33 8 39 -20q37 -109 -8 -204q-44 -94 -131 -160l18 -25q17 -29 7 -55l-50 -162q-12 -30 -36 -48l-476 -336q-43 -30 -66 5l-214 311q-13 20 -9.5 41zM634.5 455.5 q-6.5 -32.5 13.5 -64.5q18 -25 51 -32t62 11q41 32 35 82l-33 -16q-7 -4 -13 -4q-17 0 -28 18q-12 31 16 42l25 14q-49 36 -95 0q-27 -18 -33.5 -50.5z" />
<glyph unicode="&#xf029;" horiz-adv-x="399" d="M16 -102v870q0 51 40 51h277q21 0 36 -15.5t15 -35.5v-870l-184 184z" />
<glyph unicode="&#xf02a;" horiz-adv-x="593" d="M16 -154v820q0 50 40 51h216q19 0 34.5 -15.5t15.5 -35.5v-820l-153 184zM272 819q0 51 40 51h216q19 0 34.5 -15t15.5 -36v-870l-153 184v635q0 20 -16 35.5t-35 15.5h-102z" />
<glyph unicode="&#xf02b;" horiz-adv-x="952" d="M16 662l94 34q92 69 155 88q63 21 101 4q36 -17 65.5 -52.5t63 -72.5t81.5 -64q44 -25 132 -21q86 6 202 53q14 6 23 -0.5t0 -20.5q-97 -139 -168 -218q-69 -77 -113 -92q-42 -16 -74 -2q-34 14 -62 38t-64 41q-34 17 -96 -5q-60 -20 -142 -88l92 -360h-102z" />
<glyph unicode="&#xf02c;" horiz-adv-x="849" d="M16 80v248q0 63 33 102q35 39 65 48q30 10 55 10q15 0 0 -15q-51 -51 -51 -107v-325q0 -52 53 -107q10 -10 -2 -10q-42 0 -67.5 12.5t-52.5 41.5q-34 38 -33 102zM220 30v351q0 15 16 35q21 29 101 88q31 22 111 76q52 36 106 102l32 40l32 40l23 26q31 38 42 27 q49 -79 29 -140q-20 -63 -60 -122t-40 -61q0 -6 58 -14q57 -7 112 -24q52 -17 52 -48q0 -76 -62 -292q-64 -216 -110 -216q-147 0 -294.5 43t-147.5 89z" />
<glyph unicode="&#xf02d;" horiz-adv-x="849" d="M16 309q0 71 63 292q63 218 109 218q149 0 294 -44q148 -44 148 -91v-350q0 -24 -34 -56q-35 -34 -76 -62q-54 -39 -84 -58l-34 -23q-52 -37 -106 -102l-32 -40l-32 -40l-23 -27q-31 -38 -42 -26q-49 78 -30 140q21 64 61 122q40 60 40 61q0 5 -58 13t-110 25 q-55 17 -54 48zM679 780q-10 10 2 10q42 0 67.5 -12t52.5 -42q34 -38 33 -101v-248q0 -97 -64 -132q-48 -27 -89 -27q-13 0 2 14q49 50 49 106v326q0 52 -53 106z" />
<glyph unicode="&#xf02e;" d="M18 129q-10 49 32 74l162 111h100l-174 -134h182q8 0 13 -8l41 -112h307l41 112q8 8 12 8h182l-174 134h101l163 -111q17 -9 27.5 -31t4.5 -43l-30 -157q-4 -20 -22 -34t-41 -14h-835q-24 0 -42 14t-22 34zM261 532h170v262h195v-262h168l-266 -250z" />
<glyph unicode="&#xf02f;" d="M18 129q-10 49 32 74l162 111h100l-174 -134h182q8 0 13 -8l41 -112h307l41 112q8 8 12 8h182l-174 134h101l163 -111q17 -9 27.5 -31t4.5 -43l-30 -157q-4 -20 -22 -34t-41 -14h-835q-24 0 -42 14t-22 34zM261 545l267 249l266 -249h-168v-263h-195v263h-170z" />
<glyph unicode="&#xf030;" d="M16 207q0 76 54.5 129t131.5 53q12 0 20 -2q-2 17 -2 39q0 110 80 188q79 78 192 78q94 0 165.5 -55t94.5 -135q26 4 42 4q101 0 174 -70q71 -68 71.5 -169.5t-71.5 -170.5q-73 -69 -174 -70h-195v195h109l-180 235l-179 -235h107v-195h-254q-76 0 -131 53.5t-55 127.5z " />
<glyph unicode="&#xf031;" horiz-adv-x="952" d="M16 377l370 329v-196q90 0 170.5 -28t135.5 -72q112 -90 169 -203q59 -120 70 -168l6 -29q-88 156 -213 202q-124 46 -338 46v-223z" />
<glyph unicode="&#xf032;" d="M16 377l370 329v-136l-217 -193l217 -201v-141zM272 377l370 329v-196q106 0 186 -51q80 -50 118 -125q80 -158 90 -272l4 -52q-88 158 -172 203q-86 45 -226 45v-223z" />
<glyph unicode="&#xf033;" horiz-adv-x="952" d="M16 10q8 49 19.5 78.5t44.5 95.5q41 86 98 152q58 66 160 120q104 54 230 54v196l369 -329l-369 -342v223q-216 0 -340 -46t-212 -202z" />
<glyph unicode="&#xf034;" horiz-adv-x="811" d="M16 20v72q113 0 186 111q55 88 26 149q-17 38 -63 37q-61 0 -105 45.5t-44 108t44 108t105 45.5q149 0 189 -149q38 -143 -42 -309q-80 -172 -229 -210q-35 -8 -67 -8zM446 20v72q113 0 186 111q56 88 26 149q-17 38 -63 37q-61 0 -105 45.5t-44 108t44 108t105 45.5 q149 0 189 -149q38 -143 -42 -309q-80 -172 -229 -210q-35 -8 -67 -8z" />
<glyph unicode="&#xf035;" d="M16 358l327 294q31 30 61 0q17 -14 17 -34q0 -18 -17 -30l-252 -230l252 -231q17 -13 17 -31q0 -19 -17 -32q-30 -31 -61 0zM650 64q-33 32 0 63l254 231l-254 230q-33 30 0 64q30 30 64 0l326 -294l-326 -294q-34 -31 -64 0z" />
<glyph unicode="&#xf036;" d="M16 10v564q0 22 14 36t36 14h296q-67 -50 -101 -90l-10 -12h-133v-460h666v57l102 84v-193q0 -20 -16 -35.5t-36 -15.5h-768q-19 0 -34.5 15.5t-15.5 35.5zM288 190q0 74 32 161q17 44 49.5 90.5t67.5 75.5q43 36 114 58.5t149 22.5v160l340 -256l-340 -266v182 q-170 0 -248 -42q-78 -41 -164 -186z" />
<glyph unicode="&#xf037;" horiz-adv-x="829" d="M16 -41l50 246l556 553q55 12 128 -62q33 -32 48 -65q16 -33 16 -49v-17l-555 -553zM79 106q57 -31 84 -84l81 19l26 25q-2 44 -54 96q-20 20 -46 36q-22 13 -36 13l-14 2l-22 -25z" />
<glyph unicode="&#xf038;" horiz-adv-x="745" d="M32 440q24 -80 78 -162q22 -34 32 -30q8 4 0 85q-8 90 -11 170q-3 90 25 161q25 48 82 96q64 53 107 72q-25 -48 -33 -97q-20 -107 16 -113q13 0 86 124q74 124 110 124q46 4 116 -29.5t84 -66.5q12 -24 0 -80.5t-41 -85.5q-45 -44 -149.5 -63t-116.5 -25q-17 -10 12 -34 q57 -50 181 -21q-57 -81 -140 -117q-79 -34 -135 -39q-55 -5 -55 -10q-4 -23 50 -55q54 -31 103 -14q-31 -58 -65 -86q-34 -30 -53 -36t-79 -12q-71 -6 -88 -8l-71 -230q-6 -20 -27 -8q-18 8 -16 36q5 105 51 230q-103 158 -53 324z" />
<glyph unicode="&#xf039;" horiz-adv-x="1034" d="M16 242v178q0 22 18 42t38 20h892q20 0 37.5 -20t17.5 -42v-178q0 -22 -17.5 -42t-37.5 -20h-103l45 -256h-778l45 256h-101q-20 0 -38 20t-18 42zM60 561q4 9 12 15q2 0 51 17q63 23 95 33q48 15 60 15h44v153h390v-153h47q13 0 58 -15l95 -33q48 -17 50 -17 q18 -8 12 -27q-4 -10 -20 -11h-871q-27 0 -23 23zM230 26h574l-72 332h-430z" />
<glyph unicode="&#xf03a;" d="M16 463l180 203l178 -203h-102v-269h278l131 -143h-459q-42 0 -72 30.5t-30 72.5v309h-104zM374 666h460q42 0 72.5 -30.5t30.5 -72.5v-307h103l-179 -205l-180 205h105v266h-281z" />
<glyph unicode="&#xf03b;" d="M16 123v471q0 28 21 50t50 22h881q28 0 50 -22t22 -50v-471q0 -29 -21 -50.5t-51 -21.5h-881q-29 0 -50 21t-21 51zM118 154h102v102h-102v-102zM118 461h102v102h-102v-102zM169 307h103v103h-103v-103zM272 154h512v102h-512v-102zM272 461h102v102h-102v-102zM322 307 h103v103h-103v-103zM425 461h103v102h-103v-102zM476 307h102v103h-102v-103zM578 461h103v102h-103v-102zM630 307h102v103h-102v-103zM732 461h205v102h-205v-102zM784 307h102v103h-102v-103zM834 154h103v102h-103v-102z" />
<glyph unicode="&#xf03c;" horiz-adv-x="849" d="M16 256v358q0 42 30 72.5t72 30.5h614q43 0 72.5 -29.5t29.5 -73.5v-358q0 -42 -30 -72t-72 -30h-204v-154l-206 154h-204q-41 0 -71.5 30.5t-30.5 71.5z" />
<glyph unicode="&#xf03d;" d="M16 154v307q0 42 30 72t72 30h194v-317h358l7 2h4v-94q0 -42 -30.5 -72.5t-72.5 -30.5h-256l-153 -153v153h-51q-41 0 -71.5 30.5t-30.5 72.5zM374 307v410q0 42 30 72t72 30h461q43 0 73 -29.5t30 -72.5v-307q0 -42 -30.5 -72.5t-72.5 -30.5h-51v-153l-154 153h-358z " />
<glyph unicode="&#xf03e;" horiz-adv-x="849" d="M16 520q10 110 116 197q26 23 29.5 52t28.5 38.5t48 -11.5q23 -19 58 -18q135 2 202 -68q66 -67 164 -274q31 -66 88 -76q27 -4 48.5 -26t31.5 -54q23 -62 -76 -164q-97 -101 -258 -161q-166 -59 -304 -46q-134 13 -158 77q-20 55 12 113.5t18 113.5q-57 197 -48 307z M104 10q4 -12 50 -22t138 -4q88 6 180 38q88 32 163 88q73 54 103 93q29 40 25 51q-7 22 -51 34q-44 11 -126 1q-86 -11 -192 -49q-106 -40 -177 -90q-73 -52 -96 -86q-23 -36 -17 -54zM186 78q79 68 222 122q24 8 40 15l2 -2q14 -42 -18 -85q-33 -45 -91 -64 q-99 -38 -155 14z" />
<glyph unicode="&#xf03f;" horiz-adv-x="1015" d="M20 -24l457 800q8 18 30.5 18t30.5 -18l458 -800q10 -17 0 -36q-10 -16 -32 -16h-913q-17 0 -29 17.5t-2 34.5zM452 26h113v103h-113v-103zM452 205h113v307h-113v-307z" />
<glyph unicode="&#xf040;" horiz-adv-x="953" d="M17 513q3 17 28 23l80 23q23 6 41 28.5t16 49.5l-6 84q0 25 14.5 36.5t39.5 0.5l82 -39q29 -10 52.5 -1t35.5 30l46 82q13 22 31.5 21t30.5 -23l51 -88q11 -22 34 -30t48 7l139 86q21 13 30.5 6.5t0.5 -33.5l-61 -174q-12 -24 2 -43t38 -21l118 -12q26 -2 29.5 -17 t-15.5 -30l-88 -77q-19 -17 -19 -42.5t19 -41.5l88 -78q19 -17 15.5 -34.5t-27.5 -23.5l-80 -22q-24 -6 -41 -28t-15 -50l4 -84q2 -24 -14 -35t-39 0l-88 45q-25 12 -50 3t-34 -29l-47 -90q-12 -23 -29.5 -24t-34.5 20l-51 79q-36 49 -90 21l-125 -72q-22 -14 -33 -6.5 t-1 32.5l54 168q8 26 -5 46t-35 22l-109 12q-25 4 -29 18.5t15 31.5l88 78q21 17 21 41.5t-21 42.5l-88 77q-19 17 -16 34zM426 146h102v106h-102v-106zM426 309h102v267h-102v-267z" />
<glyph unicode="&#xf041;" d="M16 51v615q0 42 30 72t72 30h819q43 0 73 -30t30 -72v-615q0 -42 -30.5 -72t-72.5 -30h-819q-41 0 -71.5 30.5t-30.5 71.5zM118 51h819v615h-819v-615zM220 160v92h256v-92h-256zM220 314v92h256v-92h-256zM220 467v92h256v-92h-256zM578 160q0 71 6 72q86 22 86 67 q0 17 -27 58t-27 89q0 113 92 113t92 -113q0 -48 -29 -89t-29 -58q0 -21 21 -36.5t45 -22.5l22 -8l4 -72h-256z" />
<glyph unicode="&#xf042;" d="M16 487.5q0 10.5 10 16.5l122 84q14 10 27 12q7 4 29 4h180v194q0 21 20 21h48q20 0 20 -21v-880q0 -20 -20 -20h-48q-20 0 -20 20v450h-180q-16 0 -29 7q-13 2 -27 12l-122 84q-10 6 -10 16.5zM503 706h350q23 0 55 -16l121 -84q10 -6 10.5 -16t-10.5 -16l-121 -84 q-23 -13 -26 -13q-14 -6 -29 -6h-309z" />
<glyph unicode="&#xf043;" horiz-adv-x="542" d="M16 512q0 106 74.5 181t181 75t181.5 -75t75 -181q0 -108 -64 -249q-64 -143 -129 -228l-63 -86q-36 42 -85.5 119.5t-82.5 140.5q-88 173 -88 303zM134 510q0 -58 40.5 -99t97 -41t97.5 41t41 99q0 56 -41 96.5t-97 40.5q-57 0 -97.5 -39.5t-40.5 -97.5z" />
<glyph unicode="&#xf044;" d="M16 -14v598q0 20 16 30l240 150q18 10 34 0l222 -140l222 140q17 10 34 0l239 -150q17 -10 17 -30v-598q0 -15 -9.5 -26t-24.5 -11q-6 0 -18 6l-221 139l-221 -139q-18 -10 -35 0l-223 139l-222 -139q-16 -10 -34 0q-17 10 -16 31zM83 47l172 107v518l-172 -107v-518z M322 154l172 -107v518l-172 107v-518zM560 47l174 107v518l-174 -107v-518zM800 154l172 -107v518l-172 107v-518z" />
<glyph unicode="&#xf045;" horiz-adv-x="911" d="M16 364q460 256 712 378q8 4 34 17.5t46 23t35 13.5q23 8 40.5 -9.5t9.5 -38.5q-7 -21 -30 -67l-25 -50q-72 -151 -310 -592l-68 -121l-56 389zM478 402l29 -240l283 526z" />
<glyph unicode="&#xf046;" horiz-adv-x="1013" d="M16 352q-6 206 137.5 351t346.5 147q204 2 349 -140q145 -140 149 -344q2 -204 -139 -350q-141 -144 -346 -149q-205 -2 -349 140q-148 143 -148 345zM120 354q1 -162 116 -273q114 -111 277 -109q161 2 273 116q111 114 110 276t-118 274q-114 112 -275 110t-273 -117 q-112 -113 -110 -277zM274 129q8 59 18 95t36 104q34 90 78 135q46 46 128 77q84 34 145 44l61 10q-8 -60 -18 -95.5t-36 -102.5q-34 -90 -79 -136q-44 -44 -127 -76q-84 -32 -145 -42zM435 362q0 -27 22 -50t51 -23q30 0 50 23q53 52 90 190q-140 -38 -190 -90 q-23 -20 -23 -50z" />
<glyph unicode="&#xf047;" horiz-adv-x="728" d="M16 647q-6 29 36 59q47 34 132.5 53t179.5 19q153 0 254 -42q50 -20 73.5 -43t20.5 -46l-74 -608q-1 -13 -35 -37q-37 -26 -106.5 -45t-133 -19t-131 19t-107.5 45q-35 24 -36 37zM89 636.5q0 -12.5 34 -30.5q39 -20 108 -34.5t132.5 -14.5t132.5 14.5t108 34.5 q34 18 34 30.5t-34 29.5q-40 21 -108.5 35t-132 14t-132 -14t-108.5 -35q-34 -17 -34 -29.5z" />
<glyph unicode="&#xf048;" horiz-adv-x="808" d="M16 637v10q0 35 65 73t161 56l44 50q23 26 72 26h94q52 0 72 -26l42 -50q97 -18 162.5 -56t65.5 -73v-10q0 -61 -115 -101q-117 -42 -274.5 -42t-274.5 42q-114 40 -114 101zM66 469q124 -71 338 -71t338 71l-55 -497q-1 -14 -35 -38q-34 -22 -103 -44q-69 -21 -145 -21 q-65 0 -135.5 19.5t-110.5 45.5q-36 23 -36 38zM212 662h86l66 67h84l63 -67h86q-97 116 -107 128q-13 17 -32 17h-104q-23 0 -34 -17z" />
<glyph unicode="&#xf049;" horiz-adv-x="747" d="M16 0v717q0 42 30 72t72 30h512q43 0 72.5 -29.5t29.5 -72.5v-717q0 -42 -30 -72t-72 -30h-512q-41 0 -71.5 30.5t-30.5 71.5zM118 0h512v717h-512v-717z" />
<glyph unicode="&#xf04a;" horiz-adv-x="1055" d="M18 696q-10 38 28 50l465 124q17 4 31 -3.5t18 -22.5l68 -250l380 -102q38 -10 32 -48l-154 -569q-4 -15 -18 -23t-32 -4l-415 113q-15 3 -24 17t-5 30l25 94l-185 -49q-40 -10 -51 27zM100 686l147 -555l401 109l-148 552zM470 20l348 -94l136 504l-306 84l78 -288 q10 -36 -28 -48l-202 -53z" />
<glyph unicode="&#xf04b;" d="M16 102v512q0 42 30 72.5t72 30.5h819q43 0 73 -29.5t30 -73.5v-512q0 -42 -30.5 -72t-72.5 -30h-819q-41 0 -71.5 31t-30.5 71zM118 102h819v512h-819v-512z" />
<glyph unicode="&#xf04c;" horiz-adv-x="747" d="M16 0v717q0 42 30 72t72 30h512q43 0 72.5 -29.5t29.5 -72.5v-717q0 -42 -30 -72t-72 -30h-512q-41 0 -71.5 30.5t-30.5 71.5zM118 0h512v717h-512v-717zM230 114v91h287v-91h-287zM230 516v90h287v-90h-287zM232 316v92h287v-92h-287z" />
<glyph unicode="&#xf04d;" horiz-adv-x="747" d="M16 0v717q0 42 30 72t72 30h512q43 0 72.5 -29.5t29.5 -72.5v-717q0 -42 -30 -72t-72 -30h-512q-41 0 -71.5 30.5t-30.5 71.5zM158 114h431v91h-431v-91zM158 516h431v90h-431v-90zM161 316h428v92h-428v-92z" />
<glyph unicode="&#xf04e;" horiz-adv-x="849" d="M16 0v717q0 42 30 72t72 30h614q43 0 72.5 -29.5t29.5 -72.5v-717q0 -42 -30 -72t-72 -30h-614q-41 0 -71.5 30.5t-30.5 71.5zM118 0h614v717h-614v-717zM220 102v52h410v-52h-410zM220 205v51h256v-51h-256zM220 307v51h102v-51h-102zM220 410v204h154v-204h-154z M374 307v51h256v-51h-256zM425 410v51h205v-51h-205zM425 512v102h205v-102h-205zM528 205v51h102v-51h-102z" />
<glyph unicode="&#xf04f;" horiz-adv-x="952" d="M16 112v656q0 30 22 43q22 17 47 6l391 -157l392 157q24 10 46 -6q23 -13 23 -43v-656q0 -34 -33 -46l-408 -164q-2 0 -4 -2h-5t-5.5 -1t-5.5 -1t-5 1t-5 1l-10 2l-408 164q-33 12 -32 46zM98 135l327 -131v574l-327 130v-573zM158 256v70l206 -82v-70zM158 469v69 l206 -82v-69zM528 4l327 131v573l-327 -130v-574zM589 174v70l205 82v-70zM589 387v69l205 82v-69z" />
<glyph unicode="&#xf050;" horiz-adv-x="747" d="M16 704q0 28 14 54q28 46 104 79t119 9l461 -238q18 -8 18 -28v-576q0 -14 -13 -25.5t-28 -11.5q-47 0 -47 37v534q0 13 -12 19l-414 221q-32 10 -70 -10q-44 -20 -57 -45l418 -233q19 -8 19 -29v-563q0 -23 -19 -29q-5 -4 -17 -4q-15 0 -20 4q-14 9 -214 133l-210 131 q-26 19 -26 35z" />
<glyph unicode="&#xf051;" horiz-adv-x="1055" d="M16 463q-2 27 7.5 38t38.5 11h930q30 0 40 -11t8 -38l-44 -463q-2 -28 -13.5 -39.5t-41.5 -11.5h-825q-52 0 -58 51zM102 584l14 135q4 19 20 34t37 15h168q53 0 88 -35l31 -31q32 -36 88 -36h348q20 0 39 -12.5t23 -29.5l10 -40h-866z" />
<glyph unicode="&#xf052;" horiz-adv-x="1035" d="M19 506q7 22 9 26q2 2 22 21l41 41v-82h856v82l31 -31q34 -31 39 -47q6 -18 0 -55l-78 -461q-3 -18 -18 -33t-31 -18h-727q-53 0 -61 51q0 1 -40 230.5t-40 230.5q-10 23 -3 45zM163 563v51q0 19 11.5 34.5t27.5 17.5h622q21 0 37 -16q15 -14 15 -36v-51h-713zM265 717 q0 19 12 34t27 17h420q20 0 37 -16q15 -14 14 -35h-510zM316 286q0 -50 50 -50h307q19 0 34 10.5t15 25.5l2 14v103h-72v-82h-266v82h-70v-103z" />
<glyph unicode="&#xf053;" horiz-adv-x="952" d="M16 614v124q0 12 9 21t21 9h860q12 0 21.5 -9t9.5 -21v-124h-921zM66 20v543h820v-543q0 -29 -21 -50t-51 -21h-676q-30 0 -51 21t-21 50zM322 358h308v103h-308v-103z" />
<glyph unicode="&#xf054;" horiz-adv-x="808" d="M16 84q0 47 34 81.5t82 34.5t82.5 -34.5t34.5 -81.5t-35 -80.5t-82 -33.5t-81.5 33.5t-34.5 80.5zM16 383v121q222 0 379 -157t157 -377h-121q0 170 -121.5 291.5t-293.5 121.5zM16 624v124q321 0 549.5 -228.5t228.5 -549.5h-121q0 271 -193 463q-191 191 -464 191z" />
<glyph unicode="&#xf055;" horiz-adv-x="849" d="M15.5 72q-1.5 12 2.5 34q2 20 15 36q17 21 53 48.5t58 37.5q27 14 54 2q27 -11 36 -18q13 -10 40 -38q46 -45 214 123q166 166 120 211l-8 8q-32 32 -42 49q-12 19 -4 55q8 38 50 90q18 22 38 40t66 18q13 0 55 -32l48 -48q49 -49 -6 -198q-55 -150 -209 -302 q-154 -153 -302 -209.5t-198 -6.5l-24 24l-25 24q-4 4 -19 24q-11 16 -12.5 28z" />
<glyph unicode="&#xf056;" horiz-adv-x="890" d="M16 223q84 53 84 135q0 74 -84 128q19 54 34 84q76 -19 140 44q55 57 34 140q42 21 86 34q48 -82 135 -82t135 82q46 -13 86 -34q-20 -80 36 -140q67 -63 138 -44q23 -42 36 -84q-82 -52 -82 -128q0 -74 82 -124q-13 -42 -36 -84q-71 18 -138 -46q-56 -59 -36 -139 q-42 -21 -86 -37q-46 84 -134 84t-136 -84q-44 17 -86 37q21 83 -34 139t-140 36q-16 29 -34 83zM259 358q0 -78 54.5 -132t132.5 -54t132 54t54 132t-55 133.5t-132 55.5t-131.5 -56t-54.5 -133z" />
<glyph unicode="&#xf057;" d="M16 523q0 3 4 7l6 6t7.5 5.5t7.5 5.5q15 11 21 16q6 6 27 7q23 0 38 14.5t19 37.5q4 26 10 32q2 0 9 6q19 19 69 55q136 92 190 98q116 0 152 -2q13 0 -8 -8q-126 -55 -156 -78q-82 -57 -37 -117q36 -48 39 -49q8 -8 -2 -14q-8 -8 -39 -35.5t-39 -36.5q-14 -8 -18 -4 q-44 49 -73.5 61t-68.5 -12q-14 -14 -14 -48q0 -12 -2 -11q-2 -1 -19 -16.5t-18 -16.5q-17 -14 -29 4l-72 78q-2 4 -3 8t-1 7zM156 -2l260 254l78 -88l-252 -248q-21 -20 -39 -4l-47 47q-24 19 0 39zM372 410q-8 8 0 20l74 64q14 8 21 -2l420 -488q17 -22 -3 -39l-48 -43 q-23 -14 -40 4zM604 432l70 72q41 41 38 120q-2 36 5 60q13 58 143 114q12 6 18 -3t2 -15q-10 -10 -46 -82q-14 -10 -13 -36q1 -24 41 -54q60 -40 98 23q2 4 25 38.5t25 36.5q4 10 13 10q10 -2 11 -18q17 -105 -16 -170q-50 -90 -158 -63q-58 13 -102 -33l-84 -80z" />
<glyph unicode="&#xf058;" horiz-adv-x="849" d="M16 358.5q0 63.5 45 108.5t108 45q57 0 94 -30l267 159q0 2 -1 12.5t-1 12.5q0 63 45 108t108 45t108 -44.5t45 -108.5t-45 -109t-108 -45q-53 0 -92 33l-269 -160q2 -10 2 -27q0 -14 -2 -24l269 -160q37 31 92 31q63 0 108 -44.5t45 -109.5q0 -63 -45 -108t-108 -45 t-108 45t-45 108q0 3 1 13.5t1 13.5l-267 160q-44 -34 -94 -33q-63 0 -108 45t-45 108.5z" />
<glyph unicode="&#xf059;" d="M16 358v124h120q41 126 148.5 206t243.5 80q166 0 290 -119q16 -17 16 -44t-16 -44q-18 -17 -44 -16.5t-44 16.5q-80 84 -202 84q-105 0 -182.5 -65.5t-98.5 -159.5q-13 -62 -68 -62h-163zM220 114q0 26 18 42q18 18 42 18q26 0 44 -18q84 -84 204 -84q103 0 180.5 65.5 t99.5 159.5q12 61 68 61h164v-122h-122q-40 -124 -145 -205.5t-245 -81.5q-168 0 -290 121q-18 18 -18 44zM364 358q0 69 48 116.5t115.5 47.5t115.5 -47.5t48 -116.5q0 -66 -48.5 -115t-115 -49t-115 49t-48.5 115z" />
<glyph unicode="&#xf05a;" horiz-adv-x="952" d="M16 717v81q0 21 20 21h160q20 0 20 -21v-88h721v-280q0 -22 -19 -26l-567 -162q-19 -6 -27 -11t-8 -13q2 -14 46 -13h575v-78q0 -21 -21 -21h-669q-21 0 -21 21v78l-55 256l-55 256h-100zM169 0q0 41 30.5 71.5t72.5 30.5t72 -30t30 -72q0 -43 -30 -72.5t-72 -29.5 t-72.5 30t-30.5 72zM681 0q0 41 30.5 71.5t72.5 30.5t72 -30t30 -72q0 -43 -30 -72.5t-72 -29.5t-72.5 30t-30.5 72z" />
<glyph unicode="&#xf05b;" horiz-adv-x="910" d="M16 622q-4 36 23 62l56 44l57 44q17 16 57 16h491q40 0 58 -16q89 -68 112 -88q29 -26 25 -62l-101 -663q-8 -31 -38 -31h-600q-29 0 -42 31q-96 635 -98 663zM94 614h721l-113 119h-495zM246 522q48 -284 208 -284q60 0 102.5 35.5t63.5 90.5q36 94 44 158h-94 q-40 -192 -115.5 -192t-114.5 192h-94z" />
<glyph unicode="&#xf05c;" horiz-adv-x="952" d="M16 0v614q0 42 30 72.5t72 30.5h47v-103h163v103h298v-103h164v103h44q44 0 73.5 -29.5t29.5 -73.5v-614q0 -42 -30.5 -72t-72.5 -30h-716q-41 0 -71.5 30.5t-30.5 71.5zM118 0h716v410h-716v-410zM210 645v174h72v-174h-72zM670 645v174h72v-174h-72z" />
<glyph unicode="&#xf05d;" horiz-adv-x="952" d="M16 256v154h460v122l205 -198l-205 -201v123h-460zM274 0v102h100v-102h460v717h-460v-154h-100v154q0 42 29.5 72t70.5 30h460q44 0 73.5 -29.5t29.5 -72.5v-717q0 -42 -30.5 -72t-72.5 -30h-460q-41 0 -70.5 30.5t-29.5 71.5z" />
<glyph unicode="&#xf05e;" horiz-adv-x="952" d="M16 0v717q0 42 30 72t72 30h410q42 0 72 -29.5t30 -72.5v-154h-100v154h-412v-717h412v102h100v-102q0 -42 -30 -72t-72 -30h-410q-41 0 -71.5 30.5t-30.5 71.5zM274 256v154h460v122l203 -198l-203 -201v123h-460z" />
<glyph unicode="&#xf05f;" horiz-adv-x="686" d="M16 338v141q0 21 20 21h30q21 0 21 -21v-141q0 -68 61 -126q59 -58 195 -58t195 58q61 58 61 126v141q0 21 21 21h30q20 0 20 -21v-141q0 -94 -70 -168t-206 -86v-135h134q20 0 20 -21v-61q0 -21 -20 -21h-370q-20 0 -20 21v61q0 21 20 21h134v135q-135 12 -205.5 86 t-70.5 168zM190 338v162h306v-162q0 -30 -35 -56t-118 -26t-117 26q-36 26 -36 56zM190 572v216q0 30 36 57q34 25 117 25t118 -25q35 -27 35 -57v-216h-306z" />
<glyph unicode="&#xf060;" horiz-adv-x="935" d="M16 -41q0 23 16 37l800 800q36 32 72 0q16 -16 16 -36t-16 -37l-800 -801q-20 -14 -36 -14q-20 0 -36 15t-16 36zM124 188q-41 134 28 290q69 154 136 220q36 34 108 12q73 -22 162 -88l-53 -50q-61 40 -107 54q-48 15 -59 5q-4 -6 -2 -29q1 -18 19 -60q17 -36 44 -77z M286 4l284 282q42 -30 90 -54q44 -23 69 -26q23 -3 34 1q6 11 2 35q-5 28 -27 70q-24 48 -55 90l51 50q76 -94 104 -176t-8 -118q-24 -25 -76 -58q-55 -36 -134 -74q-170 -80 -334 -22z" />
<glyph unicode="&#xf061;" horiz-adv-x="962" d="M18 150q-10 103 29 198q40 94 80 160q39 64 69 94q42 43 152 -5q108 -48 222 -160.5t161 -222.5q48 -110 5 -152q-29 -30 -94 -69q-66 -40 -160 -80t-198 -29q-106 11 -181 85.5t-85 180.5zM244 536q-6 -10 4 -50q10 -38 50 -103q37 -61 96 -123q62 -60 123 -96 q65 -40 103 -50q40 -10 50 -4q8 11 -2 51q-10 38 -50 103.5t-99 120.5q-55 59 -120.5 99t-103.5 50q-40 10 -51 2zM474 710l56 99q26 45 69 21q17 -10 23 -29t-4 -41l-56 -98q-14 -27 -43 -27t-44.5 24t-0.5 51zM626 566q0 23 16 36l96 98q38 34 74 0q32 -36 0 -74l-98 -96 q-16 -16 -37 -16q-19 0 -35 16.5t-16 35.5zM748 420q6 20 25 30l99 56q21 10 40 4.5t29 -22.5q10 -23 3 -42t-24 -28l-98 -56q-18 -8 -24 -8q-24 0 -41 19.5t-9 46.5z" />
<glyph unicode="&#xf062;" horiz-adv-x="948" d="M15 112q-1 4 3 11q4 9 24 21l821 462q29 18 49.5 6.5t20.5 -44.5v-384q0 -34 -24.5 -58t-57.5 -24h-799q-9 0 -15.5 1t-13.5 3t-8 6z" />
<glyph unicode="&#xf063;" horiz-adv-x="972" d="M16 358.5q0 194.5 138 333t332.5 138.5t333 -138.5t138.5 -333t-138.5 -332.5t-333 -138t-332.5 138t-138 332.5zM118 358q0 -151 108.5 -259.5t259.5 -108.5q154 0 261.5 108.5t107.5 259.5q0 154 -107.5 261.5t-261.5 107.5q-150 0 -260 -107q-108 -108 -108 -262z M452 344v280h72v-249l153 -154l-51 -51z" />
<glyph unicode="&#xf064;" horiz-adv-x="604" d="M16 -39v121q0 47 49 99.5t99 99.5t50 77q0 32 -50 79q-47 44 -100 101q-48 54 -48 99v121q0 33 89 72.5t197 39.5t197.5 -40t89.5 -72v-121q-1 -45 -49 -99q-52 -57 -100 -101q-50 -47 -50 -79q0 -30 50 -77t99.5 -99.5t49.5 -99.5v-121q0 -35 -89 -75q-86 -40 -198 -40 t-198 40q-88 40 -88 75zM75 688l4 -51q0 -33 92 -125q3 -4 23 -22.5t23 -21.5l19 -20q2 -2 6 -6.5t11.5 -14t11 -15.5t0.5 -6q-6 2 3 -12q17 -30 14 -34q0 -2 -4 -2q0 -24 -8 -38q-18 -32 -19 -34l-13 -14l-31 -32l-36 -33q-92 -92 -92 -125v-68q4 2 67 24q60 20 95 44 t35 60q0 30 26 30t26 -30q0 -36 34 -60t97 -44q65 -20 69 -24v68q0 30 -95 125l-29 29l-34 32q-17 18 -30 44q-12 19 -12 46q0 40 23 68q21 26 53 58l29 28q94 94 95 125l2 51q-104 -56 -228 -55.5t-227 55.5zM77 738q-4 -8 4 -15q93 -53 221 -53q134 0 226 51q14 11 -17 31 q-99 55 -207 55q-123 0 -209 -55z" />
<glyph unicode="&#xf065;" horiz-adv-x="747" d="M16 572q8 122 96 210t260 88q174 0 262 -88q86 -86 97 -210q7 -111 -69 -214l-34 -44q-23 -29 -34.5 -45.5t-28.5 -43.5t-29 -53q-24 -56 -24 -116h-276q0 70 -35.5 139t-81.5 119q-46 48 -77.5 117t-25.5 141zM125 542.5q3 -18.5 2 -20.5t5 -19t6 -18t3 -7.5t6 -12.5 t7 -13l4 -6q0 -2 13 -19t14 -19t15.5 -23t16.5 -23q90 -122 115 -216h84q24 96 114 216q2 2 14 19l24 35q13 17 14 19q29 47 34 63q8 38 6 65q-16 201 -250 201q-230 0 -247 -201q-3 -2 0 -20.5zM230 -6h288v-106q-72 -44 -146 -42q-71 0 -142 42v106z" />
<glyph unicode="&#xf066;" horiz-adv-x="747" d="M16 358q0 18 15.5 30t35 12t35.5 -12t16 -30q0 -40 -51 -40t-51 40zM119.5 606.5q28.5 28.5 66.5 -8.5q12 -12 15.5 -30.5t-7.5 -33.5q-31 -28 -66 6q-37 38 -8.5 66.5zM124 100q-30 29 6.5 66t65 8.5t-7.5 -66.5q-13 -12 -31.5 -15.5t-32.5 7.5zM210 358q0 67 49 115.5 t115 48.5q68 0 116 -48t48 -116q0 -69 -48 -116.5t-116 -47.5t-116 48t-48 116zM270 358q0 -44 30 -75t74 -31t74 31t30 75t-30 74.5t-74 30.5q-43 0 -73.5 -30.5t-30.5 -74.5zM333 51q0 19 11.5 35t29 16t29 -16t11.5 -35t-11.5 -35t-29 -16t-29 16t-11.5 35zM333 665.5 q0 19.5 11.5 35.5t29 16t29 -16t11.5 -35.5t-11.5 -35.5t-29 -16t-29 16t-11.5 35.5zM544.5 570.5q2.5 18.5 15.5 31.5q37 35 65.5 6.5t-7.5 -66.5q-14 -13 -32 -15.5t-32 9.5q-12 16 -9.5 34.5zM556 176.5q28 28.5 66 -8.5q13 -14 16 -32t-10 -32q-31 -28 -66 6 q-34 38 -6 66.5zM632 358q0 18 15 30t34 12t35 -12t16 -30q0 -40 -51 -40q-49 0 -49 40z" />
<glyph unicode="&#xf067;" d="M16 358q0 18 15.5 30t34.5 12h52q20 0 35.5 -12t15.5 -30q0 -40 -51 -40h-52q-50 0 -50 40zM134.5 708q-2.5 18 9.5 34q14 13 32 9.5t32 -16.5l36 -37q38 -36 7 -65q-15 -11 -33 -8t-30 16q-29 29 -38 35q-13 14 -15.5 32zM144 -26q-30 28 6 65q9 6 38 35q12 14 30 17.5 t33 -9.5q13 -16 10 -34t-17 -32l-36 -36q-14 -14 -32 -17t-32 11zM247 358q0 117 81.5 199t199.5 82q115 0 199 -82q83 -82 83 -199q0 -118 -83 -200q-84 -82 -199 -82q-117 0 -199 82t-82 200zM322 358q0 -84 61 -145q59 -59 144 -59t145 59q60 61 60 145t-60 144.5 t-144 60.5t-145 -60.5t-61 -144.5zM486 -51q0 19 12 35t29.5 16t29 -16t11.5 -35v-51q0 -20 -11.5 -36t-29 -16t-29.5 16t-12 36v51zM486 768v51q0 19 12 35t29.5 16t29 -16t11.5 -35v-51q0 -20 -11.5 -35.5t-29 -15.5t-29.5 15.5t-12 35.5zM803.5 82q28.5 28 66.5 -8 l34 -35q37 -37 8.5 -66t-65.5 7q-29 28 -35 36q-37 38 -8.5 66zM804 633q-28 29 8 65q6 8 35 37q37 35 65.5 6t-8.5 -65l-34 -35q-36 -35 -66 -8zM888 358q0 18 16 30t35 12h49q20 0 36 -12t16 -30q0 -40 -52 -40h-49q-51 0 -51 40z" />
<glyph unicode="&#xf068;" d="M16 358q0 18 15.5 30t34.5 12h52q20 0 35.5 -12t15.5 -30q0 -40 -51 -40h-52q-50 0 -50 40zM134.5 708q-2.5 18 9.5 34q14 13 32 9.5t32 -16.5l36 -37q38 -36 7 -65q-15 -11 -33 -8t-30 16q-29 29 -38 35q-13 14 -15.5 32zM144 -26q-30 28 6 65q9 6 38 35q12 14 30 17.5 t33 -9.5q13 -16 10 -34t-17 -32l-36 -36q-14 -14 -32 -17t-32 11zM247 358q0 117 81.5 199t199.5 82q115 0 199 -82q83 -82 83 -199q0 -118 -83 -200q-84 -82 -199 -82q-117 0 -199 82t-82 200zM322 358q0 -86 62 -145t150 -59v409q-88 0 -150 -60q-62 -61 -62 -145z M486 -51q0 19 12 35t29.5 16t29 -16t11.5 -35v-51q0 -20 -11.5 -36t-29 -16t-29.5 16t-12 36v51zM486 768v51q0 19 12 35t29.5 16t29 -16t11.5 -35v-51q0 -20 -11.5 -35.5t-29 -15.5t-29.5 15.5t-12 35.5zM803.5 82q28.5 28 66.5 -8l34 -35q37 -37 8.5 -66t-65.5 7 q-29 28 -35 36q-37 38 -8.5 66zM804 633q-28 29 8 65q6 8 35 37q37 35 65.5 6t-8.5 -65l-34 -35q-36 -35 -66 -8zM888 358q0 18 16 30t35 12h49q20 0 36 -12t16 -30q0 -40 -52 -40h-49q-51 0 -51 40z" />
<glyph unicode="&#xf069;" horiz-adv-x="1013" d="M16 358q0 206 144 348q145 144 347 144q205 0 348 -143.5t143 -348.5q0 -201 -143 -346t-348 -145q-203 0 -347 144.5t-144 346.5zM134 358q0 -136 84 -235l526 526q-102 84 -237 84q-155 0 -265 -109q-108 -109 -108 -266zM242 94zM272 70q99 -84 235 -84 q155 0 265 109.5t110 262.5q0 134 -84 238zM771 624z" />
<glyph unicode="&#xf06a;" horiz-adv-x="841" d="M16 -45v323l102 -124l150 155l102 -102l-156 -149l125 -103h-323zM472 514l156 150l-125 100h323v-324l-102 128l-150 -156z" />
<glyph unicode="&#xf06b;" horiz-adv-x="952" d="M16 0l159 150l-109 102h304v-303l-102 109l-150 -160zM584 467v301l103 -106l147 157l103 -102l-157 -147l106 -103h-302z" />
<glyph unicode="&#xf06c;" horiz-adv-x="849" d="M16 51v307h102v-307h307v-102h-307q-41 0 -71.5 30.5t-30.5 71.5zM220 256v412q0 40 30 70t72 30h410q43 0 72.5 -30t29.5 -72v-410q0 -42 -30 -72t-72 -30h-410q-40 0 -71 30.5t-31 71.5zM322 256h410v410h-410v-410z" />
<glyph unicode="&#xf06d;" d="M16 102v615q0 41 30.5 71.5t71.5 30.5h819q42 0 72.5 -30t30.5 -72v-615q0 -42 -30 -72t-73 -30h-203v100h205v474h-821v-474h204v-100h-204q-42 0 -72 30t-30 72zM110 686q0 -16 11 -27.5t27 -11.5q40 0 40 39q0 16 -11.5 26.5t-28.5 10.5q-15 0 -26.5 -10.5 t-11.5 -26.5zM212 686q0 -16 11 -27.5t28 -11.5q39 0 39 39q0 16 -11 26.5t-28 10.5q-15 0 -27 -10.5t-12 -26.5zM278 205l248 245l247 -245h-153v-307h-189v307h-153zM322 654h617v63h-617v-63z" />
<glyph unicode="&#xf06e;" d="M16 51v615q0 40 30.5 71t71.5 31h819q42 0 72.5 -30t30.5 -72v-615q0 -43 -30 -72.5t-73 -29.5h-819q-42 0 -72 30t-30 72zM110 635q0 -17 11 -28t27 -11q40 0 40 39q0 17 -11.5 27t-28.5 10q-15 0 -26.5 -11t-11.5 -26zM118 51h821v471h-821v-471zM212 635q0 -17 11 -28 t28 -11q39 0 39 39q0 17 -11 27t-28 10q-15 0 -27 -11t-12 -26zM322 604h617v62h-617v-62z" />
<glyph unicode="&#xf06f;" horiz-adv-x="501" d="M16 221h470l-235 -375zM16 498l235 372l235 -372h-470z" />
<glyph unicode="&#xf070;" horiz-adv-x="972" d="M16 358.5q0 194.5 138 333t332.5 138.5t333 -138.5t138.5 -333t-138.5 -332.5t-333 -138t-332.5 138t-138 332.5zM118 358q0 -151 108.5 -259.5t260 -108.5t260 108.5t108.5 259.5q0 154 -109 262q-109 107 -259.5 107t-260.5 -107q-108 -108 -108 -262zM280 346h114v211 h184v-211h115l-207 -194z" />
<glyph unicode="&#xf071;" horiz-adv-x="972" d="M16 358q0 197 138 334q139 137 332.5 137.5t332.5 -137.5q138 -137 139 -334q0 -194 -138.5 -332t-333 -138t-332.5 138t-138 332zM118 358q0 -151 108.5 -259.5t260 -108.5t260 108.5t108.5 259.5q0 154 -109 262q-109 107 -259.5 107t-260.5 -107q-108 -108 -108 -262z M280 358l194 210v-118h209v-184h-209v-114z" />
<glyph unicode="&#xf072;" horiz-adv-x="972" d="M16 358.5q0 194.5 138 333t332.5 138.5t333 -138.5t138.5 -333t-138.5 -332.5t-333 -138t-332.5 138t-138 332.5zM118 358q0 -151 108.5 -259.5t259.5 -108.5q154 0 261.5 108.5t107.5 259.5q0 154 -107.5 261.5t-261.5 107.5q-150 0 -260 -107q-108 -108 -108 -262z M290 266v184h208v118l195 -210l-195 -206v114h-208z" />
<glyph unicode="&#xf073;" horiz-adv-x="972" d="M16 358q0 197 138 334q139 137 332.5 137.5t332.5 -137.5q138 -137 139 -334q0 -194 -138.5 -332t-333 -138t-332.5 138t-138 332zM118 358q0 -151 108.5 -259.5t259.5 -108.5q154 0 261.5 108.5t107.5 259.5q0 154 -107.5 261.5t-261.5 107.5q-150 0 -260 -107 q-108 -108 -108 -262zM280 370l206 198l207 -198h-115v-208h-184v208h-114z" />
<glyph unicode="&#xf074;" horiz-adv-x="624" d="M15.5 474q0.5 26 16.5 42q38 39 80 0l200 -192l201 192q42 39 80 0q17 -16 17 -42t-17 -42l-239 -229q-19 -19 -41.5 -19t-40.5 19l-240 229q-17 16 -16.5 42z" />
<glyph unicode="&#xf075;" horiz-adv-x="379" d="M16 358q0 25 16 42l231 241q13 17 40 17q25 0 42 -17q39 -37 0 -82l-191 -201l191 -198q39 -46 0 -82q-17 -16 -41 -16t-41 16l-231 242q-17 16 -16 38z" />
<glyph unicode="&#xf076;" horiz-adv-x="378" d="M34 78q-37 37 0 82l190 198l-190 201q-37 45 0 82q16 17 42 17t40 -17l231 -241q17 -17 17 -42q0 -22 -17 -38l-231 -242q-17 -16 -41.5 -16t-40.5 16z" />
<glyph unicode="&#xf077;" horiz-adv-x="624" d="M15.5 245q0.5 25 16.5 41l240 230q16 16 40.5 16t41.5 -16l239 -230q17 -16 17 -41.5t-17 -41.5q-38 -39 -80 0l-201 193l-200 -193q-42 -39 -80 0q-17 17 -16.5 42z" />
<glyph unicode="&#xf078;" horiz-adv-x="507" d="M28 432q-26 26 0 50q25 24 52 0l174 -160l176 160q22 26 49 0q27 -23 0 -50l-201 -196q-22 -23 -48 0z" />
<glyph unicode="&#xf079;" horiz-adv-x="302" d="M28 334q-25 24 0 51l196 199q24 26 50 0q25 -23 0 -50l-160 -176l160 -174q25 -26 0 -49q-26 -27 -50 0z" />
<glyph unicode="&#xf07a;" horiz-adv-x="302" d="M28 135q-26 23 0 49l162 174l-162 176q-26 27 0 50q27 26 50 0l196 -199q25 -27 0 -51l-196 -199q-22 -27 -50 0z" />
<glyph unicode="&#xf07b;" horiz-adv-x="505" d="M28 236q-25 24 0 50l200 196q26 26 50 0l200 -196q24 -26 0 -50t-51 0l-174 162l-174 -162q-27 -24 -51 0z" />
<glyph unicode="&#xf07c;" horiz-adv-x="917" d="M28 534q-26 27 0 50q26 24 52 0l379 -365l381 365q22 26 49 0q27 -23 0 -50l-405 -401q-23 -23 -50 0z" />
<glyph unicode="&#xf07d;" horiz-adv-x="506" d="M28 334q-25 24 0 51l401 403q23 27 49 0q26 -22 0 -48l-366 -382l366 -378q26 -27 0 -50q-26 -26 -49 0z" />
<glyph unicode="&#xf07e;" horiz-adv-x="506" d="M28 -20l368 378l-368 382q-26 26 0 48q27 27 50 0l401 -403q25 -27 0 -51l-401 -404q-22 -26 -50 0q-26 23 0 50z" />
<glyph unicode="&#xf07f;" horiz-adv-x="915" d="M28 133q-25 25 0 51l405 400q25 26 49 0l406 -400q24 -26 0 -51q-26 -23 -50 0l-380 367l-379 -367q-27 -23 -51 0z" />
<glyph unicode="&#xf080;" horiz-adv-x="706" d="M16 375h196v358h282v-358h197l-337 -389z" />
<glyph unicode="&#xf081;" horiz-adv-x="778" d="M16 358l386 338v-194h361v-285h-361v-197z" />
<glyph unicode="&#xf082;" horiz-adv-x="778" d="M16 217v285h358v194l389 -338l-389 -338v197h-358z" />
<glyph unicode="&#xf083;" horiz-adv-x="706" d="M16 344l338 389l337 -389h-197v-358h-282v358h-196z" />
<glyph unicode="&#xf084;" horiz-adv-x="501" d="M16 563h470l-235 -409z" />
<glyph unicode="&#xf085;" horiz-adv-x="440" d="M16 358l409 236v-471z" />
<glyph unicode="&#xf086;" horiz-adv-x="440" d="M16 123v471l409 -236z" />
<glyph unicode="&#xf087;" horiz-adv-x="501" d="M16 154l235 409l235 -409h-470z" />
<glyph unicode="&#xf088;" horiz-adv-x="808" d="M16 375h196v358h385v-358h197l-390 -389z" />
<glyph unicode="&#xf089;" horiz-adv-x="778" d="M16 358l386 390v-195h361v-387h-361v-196z" />
<glyph unicode="&#xf08a;" horiz-adv-x="778" d="M16 166v387h358v195l389 -390l-389 -388v196h-358z" />
<glyph unicode="&#xf08b;" horiz-adv-x="808" d="M16 344l388 389l390 -389h-197v-358h-385v358h-196z" />
<glyph unicode="&#xf08c;" horiz-adv-x="542" d="M16 102h165v758h181v-758h166l-256 -246z" />
<glyph unicode="&#xf08d;" horiz-adv-x="1034" d="M16 358l245 256v-164h758v-182h-758v-166z" />
<glyph unicode="&#xf08e;" horiz-adv-x="1034" d="M16 268v182h759v164l244 -256l-244 -256v166h-759z" />
<glyph unicode="&#xf08f;" horiz-adv-x="542" d="M16 616l256 244l256 -244h-166v-760h-181v760h-165z" />
<glyph unicode="&#xf090;" horiz-adv-x="993" d="M16 344h126q2 170 126 290q122 120 292 120q175 0 296 -123q122 -124 122 -297t-122 -297q-121 -123 -296 -123q-146 0 -258 90l72 76q86 -62 186 -62q129 0 221.5 92.5t92.5 223.5t-92.5 223t-221.5 92q-127 0 -219 -89q-93 -89 -94 -216h145l-188 -209z" />
<glyph unicode="&#xf091;" horiz-adv-x="993" d="M16 358q0 174 122.5 297t294.5 123t294 -118q121 -120 126 -290h125l-188 -210l-189 210h147q-4 128 -96 216t-219 88q-129 0 -221 -92t-92 -224q0 -128 92 -220.5t221 -92.5q107 0 187 61l71 -78q-111 -90 -258 -90q-172 0 -294.5 123t-122.5 297z" />
<glyph unicode="&#xf092;" horiz-adv-x="870" d="M16 364q0 172 122 296q102 101 246 118l4 -104q-104 -16 -176 -90q-91 -90 -92 -218q-2 -128 86 -222l118 118v-299l-282 17l90 88q-119 124 -116 296zM484 45q102 17 174 90q92 90 92 219q2 128 -86 222l-116 -120l-2 300l282 -16l-90 -88q120 -126 117 -298 q-1 -172 -123 -294q-100 -102 -246 -122z" />
<glyph unicode="&#xf093;" horiz-adv-x="792" d="M16 307v359h142v-318h374v154l245 -226l-245 -225v154h-414q-42 0 -72 30t-30 72z" />
<glyph unicode="&#xf094;" horiz-adv-x="901" d="M16 430l204 174v-102h564q42 0 72 -30t30 -72v-288h-144v246h-522v-92z" />
<glyph unicode="&#xf095;" d="M16 58v142h106q52 0 106 32t86 69q18 21 92 116t96 119q41 46 118 90q80 46 168 46h36v122l216 -184l-216 -184v102h-36q-52 0 -105 -31t-85 -69q-16 -20 -81 -102t-81 -100q-30 -36 -80 -80q-101 -88 -234 -88h-106zM16 518v144h106q144 0 260 -111l-32 -39l-34 -41 q-8 -15 -24 -33q-75 80 -170 80h-106zM521 166l74 94q0 2 7 12l8 8q86 -90 178 -90h36v103l216 -185l-216 -184v123h-36q-143 0 -267 119z" />
<glyph unicode="&#xf096;" horiz-adv-x="952" d="M16 154v296q0 42 30 72.5t72 30.5h256v113l204 -184l-204 -185v113h-216v-216h636v216h-154v143h194q44 0 73.5 -29.5t29.5 -73.5v-296q0 -42 -30.5 -72.5t-72.5 -30.5h-716q-41 0 -71.5 30.5t-30.5 72.5z" />
<glyph unicode="&#xf097;" d="M16 534l204 174v-102h512v-143h-512v-93zM322 104v144h512v102l206 -174l-206 -164v92h-512z" />
<glyph unicode="&#xf098;" horiz-adv-x="542" d="M16 96v526q0 30 16.5 41t42.5 -5l438 -273q15 -11 15 -27q0 -13 -15 -24l-438 -272q-25 -17 -42 -6.5t-17 40.5z" />
<glyph unicode="&#xf099;" horiz-adv-x="645" d="M16 119v481q0 37 18 51.5t59 14.5h461q76 0 76 -66v-481q0 -67 -76 -68h-461q-78 0 -77 68z" />
<glyph unicode="&#xf09a;" horiz-adv-x="573" d="M16 68v584q0 65 92 65t92 -65v-584q0 -68 -92 -68t-92 68zM374 68v584q0 65 92 65t92 -65v-584q0 -68 -92 -68t-92 68z" />
<glyph unicode="&#xf09b;" horiz-adv-x="747" d="M16 358q0 150 104 254.5t254 104.5t254 -104.5t104 -254.5q0 -147 -104 -252.5t-254 -105.5t-254 105.5t-104 252.5z" />
<glyph unicode="&#xf09c;" horiz-adv-x="645" d="M16 133v453q0 25 13.5 35t36.5 -5l371 -233q15 -11 15 -25q0 -11 -15 -22l-371 -234q-23 -14 -36.5 -4t-13.5 35zM476 121v477q0 60 78 60q76 0 76 -60v-477q0 -59 -76 -59q-78 0 -78 59z" />
<glyph unicode="&#xf09d;" horiz-adv-x="645" d="M16 121v477q0 60 77 60q76 0 76 -60v-477q0 -59 -76 -59q-78 0 -77 59zM194 358q0 14 14 25l372 233q23 15 36.5 5.5t13.5 -35.5v-453q0 -25 -13.5 -35t-36.5 4l-372 234q-14 12 -14 22z" />
<glyph unicode="&#xf09e;" horiz-adv-x="931" d="M16 112v494q0 26 15 36t37 -5l369 -254q15 -11 15 -25t-15 -22l-369 -254q-22 -16 -37 -6t-15 36zM468 112v494q0 28 15 37t38 -6l381 -254q14 -11 14 -25t-14 -22l-381 -254q-23 -14 -38 -5.5t-15 35.5z" />
<glyph unicode="&#xf09f;" horiz-adv-x="931" d="M16 358q-1 14 14 25l382 254q23 15 38.5 5.5t15.5 -36.5v-494q0 -26 -15.5 -36t-38.5 6l-382 254q-15 8 -14 22zM480 358q0 14 14 25l369 254q23 15 38 5.5t15 -36.5v-494q0 -26 -15 -36t-38 6l-369 254q-14 8 -14 22z" />
<glyph unicode="&#xf0a0;" d="M16 205v307q0 41 30.5 71.5t71.5 30.5h819q42 0 72.5 -30t30.5 -72v-307q0 -43 -30 -73t-73 -30h-819q-42 0 -72 30.5t-30 72.5zM118 205h819v307h-819v-307z" />
<glyph unicode="&#xf0a1;" d="M16 205v307q0 41 30.5 71.5t71.5 30.5h819q42 0 72.5 -30t30.5 -72v-307q0 -43 -30 -73t-73 -30h-819q-42 0 -72 30.5t-30 72.5zM118 205h819v307h-819v-307zM169 256v203h205v-203h-205z" />
<glyph unicode="&#xf0a2;" d="M16 205v307q0 41 30.5 71.5t71.5 30.5h819q42 0 72.5 -30t30.5 -72v-307q0 -43 -30 -73t-73 -30h-819q-42 0 -72 30.5t-30 72.5zM118 205h819v307h-819v-307zM169 256v203h205v-203h-205zM425 256v203h205v-203h-205z" />
<glyph unicode="&#xf0a3;" d="M16 205v307q0 41 30.5 71.5t71.5 30.5h819q42 0 72.5 -30t30.5 -72v-307q0 -43 -30 -73t-73 -30h-819q-42 0 -72 30.5t-30 72.5zM118 205h819v307h-819v-307zM169 256v203h205v-203h-205zM425 256v203h205v-203h-205zM681 256v203h205v-203h-205z" />
<glyph unicode="&#xf0a4;" horiz-adv-x="911" d="M16 358q0 182 129 311t311 129t311 -129t129 -311t-129 -311t-311 -129t-311 129t-129 311zM100 324q12 -126 103 -218q90 -90 218 -104v198h71v-198q126 14 218 104q90 90 102 218h-196v72h196q-12 126 -102 216q-92 92 -218 105v-199h-71v199q-128 -15 -218 -105 q-91 -90 -103 -216h198v-72h-198z" />
<glyph unicode="&#xf0a5;" horiz-adv-x="1034" d="M16 324q8 120 107 240q97 119 221 155q296 86 549 -82q73 -49 103 -112.5t21 -106.5q-8 -40 -29.5 -48t-61.5 9q-98 36 -164 -37q-30 -47 -22 -77q10 -31 35 -67t23 -50q-2 -27 -36 -65q-34 -37 -129 -76q-92 -38 -221 -37q-190 0 -298.5 103t-97.5 251zM490 238 q0 -34 22 -56t56 -22q31 0 53 23t22 55t-22 54t-53 22q-34 0 -56 -22t-22 -54z" />
<glyph unicode="&#xf0a6;" horiz-adv-x="747" d="M16 153.5q0 20.5 14.5 36t35.5 15.5h52q20 0 35.5 -15.5t15.5 -36t-16 -36t-35 -15.5h-52q-19 0 -34.5 15.5t-15.5 36zM16 358.5q0 20.5 14.5 36t35.5 15.5h52q20 0 35.5 -15.5t15.5 -36t-16 -36t-35 -15.5h-52q-19 0 -34.5 15.5t-15.5 36zM16 563q0 21 14.5 36t35.5 15 h52q20 0 35.5 -15t15.5 -36t-16 -36t-35 -15h-52q-19 0 -34.5 15t-15.5 36zM272 153.5q0 20.5 15.5 36t34.5 15.5h359q21 0 36 -15.5t15 -36t-16 -36t-35 -15.5h-359q-19 0 -34.5 15.5t-15.5 36zM272 358.5q0 20.5 15.5 36t34.5 15.5h359q21 0 36 -15.5t15 -36t-16 -36 t-35 -15.5h-359q-19 0 -34.5 15.5t-15.5 36zM272 563q0 21 15.5 36t34.5 15h359q21 0 36 -15t15 -36t-16 -36t-35 -15h-359q-19 0 -34.5 15t-15.5 36z" />
<glyph unicode="&#xf0a7;" d="M16 153.5q0 20.5 14.5 36t35.5 15.5h308q22 0 36.5 -15.5t14.5 -36t-16 -36t-35 -15.5h-308q-19 0 -34.5 15.5t-15.5 36zM16 358.5q0 20.5 14.5 36t35.5 15.5h308q22 0 36.5 -15.5t14.5 -36t-16 -36t-35 -15.5h-308q-19 0 -34.5 15.5t-15.5 36zM16 563q0 21 14.5 36 t35.5 15h308q22 0 36.5 -15t14.5 -36t-16 -36t-35 -15h-308q-19 0 -34.5 15t-15.5 36zM534 358.5q0 51.5 30 51.5h168v174q0 30 51 30t51 -30v-174h174q32 0 32 -51.5t-32 -51.5h-174v-174q0 -31 -51 -31t-51 31v174h-168q-30 0 -30 51.5z" />
<glyph unicode="&#xf0a8;" horiz-adv-x="1034" d="M16 557q208 211 502 211q293 0 501 -211l-72 -71q-178 180 -430 180t-430 -180zM158 412q149 151 360 151q210 0 358 -151l-72 -72q-118 121 -286 121q-167 0 -288 -121zM302 268q90 90 215 90t215 -90l-72 -74q-59 60 -143 60t-143 -60zM417 51q0 41 29.5 72t70.5 31 q42 0 72.5 -30.5t30.5 -72.5q0 -43 -30 -72.5t-73 -29.5q-41 0 -70.5 30t-29.5 72z" />
<glyph unicode="&#xf0a9;" horiz-adv-x="952" d="M16 700q0 15 11 25t25 10h176q50 94 248 95q200 0 250 -95h174q14 0 25.5 -10t11.5 -25q0 -158 -86 -250q-47 -50 -76 -74t-90 -62q-80 -54 -113 -90q-34 -36 -34 -87v-67q69 -8 118 -33q48 -25 48 -57q0 -38 -67 -65q-65 -27 -161 -27q-92 0 -159.5 27t-67.5 65 q0 32 47 57q49 25 121 33v67q0 51 -34 86q-31 33 -115 91q-62 38 -91 62t-75 74q-86 92 -86 250zM89 664q7 -92 55 -152t130 -116q-50 105 -56 268h-129zM282 690q0 -14 18 -32q24 -21 73.5 -34.5t103 -13.5t102.5 13.5t73 34.5q19 18 18 32q0 12 -18 30q-23 22 -72.5 35 t-103 13t-103 -13t-73.5 -35q-18 -18 -18 -30zM679 396q81 56 129 116t55 152h-129q-6 -164 -55 -268z" />
<glyph unicode="&#xf0aa;" d="M16 358q0 113 70 210.5t204 97.5h512q86 0 120 -20q36 -20 66 -66h-68q-42 0 -79 -62t-37 -160q0 -100 37 -160.5t79 -60.5h68q-30 -46 -66 -67q-34 -19 -120 -19h-512q-133 0 -203.5 96.5t-70.5 210.5zM202 448q-8 -15 8 -28q140 -135 184 -166q35 -16 43 -12q7 4 19 32 l24 60l150 -70q26 -12 34 2q12 12 -8 27q-143 141 -182 168q-34 21 -45 8q-9 -9 -19 -31l-22 -57l-152 67q-26 13 -34 0zM888 363q0 39 14 69.5t41 30.5h39q26 0 42 -31.5t16 -69.5t-16 -70t-42 -32h-39q-27 0 -41 32t-14 71z" />
<glyph unicode="&#xf0ab;" horiz-adv-x="993" d="M16 370h126q6 170 126 290q122 118 292 118q175 0 296 -122q122 -124 122 -297t-122 -297q-121 -124 -296 -124q-142 0 -258 90l72 78q85 -61 186 -61q129 0 221.5 92.5t92.5 220.5q0 132 -92.5 224t-221.5 92q-127 0 -218 -88q-90 -88 -95 -216h145l-188 -210zM524 344 v240h71v-209l133 -133l-51 -52z" />
<glyph unicode="&#xf0ac;" d="M16 144v562q0 42 30.5 72.5t71.5 30.5h819q42 0 72.5 -30.5t30.5 -72.5v-562q0 -44 -30.5 -80t-70.5 -44l-223 -44l88 -40q50 -28 -20 -28h-512q-100 0 32 53l37 15l-225 44q-40 8 -70 44t-30 80zM118 148h819v569h-819v-569z" />
<glyph unicode="&#xf0ad;" horiz-adv-x="624" d="M16 -41v799q0 42 30 72t72 30h389q43 0 73 -29.5t30 -72.5v-799q0 -42 -30.5 -72.5t-72.5 -30.5h-389q-41 0 -71.5 31t-30.5 72zM98 51h430v676h-430v-676zM240 -51q0 -21 23 -36t49 -15q28 0 50 14t22 37t-21.5 37t-50.5 14q-26 0 -49 -15t-23 -36z" />
<glyph unicode="&#xf0ae;" horiz-adv-x="972" d="M16 358q0 112 50 212q40 -66 86 -116q-8 -26 -8 -38q0 -35 21 -62q-63 -118 -82 -238q-67 109 -67 242zM108 637q56 77 130 121q92 -38 156 -84q-6 -16 -6 -33q0 -7 4 -23q-64 -48 -118 -106q-16 4 -30 4q-23 0 -42 -10q-52 58 -94 131zM142 37q13 145 82 281q8 -2 20 -2 q30 0 54 14q148 -102 318 -127q-194 -98 -312 -279q-92 37 -162 113zM320 798q86 31 166 32q124 0 236 -64q-76 -14 -166 -51q-26 27 -68 27q-28 0 -51 -15q-57 41 -117 71zM331 469q37 43 100 92q27 -21 57 -21q13 0 40 9q94 -109 136 -246q-14 -11 -26 -33 q-164 25 -297 115q4 17 4 31q0 22 -14 53zM372 -100q112 162 292 250q14 -10 34 -19q2 -25 2 -53q0 -79 -15 -148q-87 -42 -199 -42q-59 0 -114 12zM578 598q10 20 11 43v11q103 42 215 54q154 -138 154 -348q0 -27 -4 -67q-67 -19 -134 -25q-24 58 -90 62q-49 149 -152 270 zM765 -22q6 49 6 100q0 6 -1 28.5t-1 28.5q38 15 55 61q61 4 111 19q-48 -151 -170 -237z" />
<glyph unicode="&#xf0af;" horiz-adv-x="972" d="M16 358.5q0 194.5 138 333t332.5 138.5t333 -138.5t138.5 -333t-138.5 -332.5t-333 -138t-332.5 138t-138 332.5zM333 358.5q0 -63.5 45.5 -108.5t108 -45t108 45t45.5 108q0 66 -44 110t-110 44q-62 0 -107.5 -45t-45.5 -108.5z" />
<glyph unicode="&#xf0b0;" horiz-adv-x="1053" d="M16 334q-8 33 33 74q5 6 37 38l62 62l61 60q23 22 53 22h528q31 0 54 -22l122 -120q34 -31 40 -40q40 -44 30 -74l-28 -158q-4 -20 -22 -33.5t-42 -13.5h-836q-23 0 -41 13.5t-22 33.5zM137 375h183q6 0 12 -9l40 -102h308l41 102q5 9 12 9h183l-105 117h-569z" />
<glyph unicode="&#xf0b1;" horiz-adv-x="953" d="M18 215q-8 52 14 99l162 382q22 48 74 48h106l-20 -210h-138l260 -214l262 214h-139l-19 210h105q51 0 76 -48l159 -382q25 -55 15 -99l-35 -189q-2 -20 -20 -35t-40 -15h-728q-22 0 -40 15t-20 35zM102 178l14 -76q2 -20 19 -36.5t38 -16.5h607q22 0 39 16t19 37l13 76 q2 22 -10.5 39t-34.5 17h-660q-21 0 -33.5 -17t-10.5 -39z" />
<glyph unicode="&#xf0b2;" horiz-adv-x="1013" d="M16 358q0 204 144 348t347 144q205 0 348 -144q143 -146 143 -348q0 -204 -143 -347.5t-348 -143.5q-201 0 -347 143q-145 144 -144 348zM116 508q4 0 14 -1t21.5 -2.5t15.5 -1.5q59 -5 63 -26q4 -11 -14 -46q-18 -34 -18 -63q0 -30 39 -57t39 -47q0 -26 8 -70l8 -44 q0 -13 37 -56t53 -43q10 0 12 23.5t-2 58.5t-4 37q0 30 14 76q13 42 61 72q49 29 56 46q25 54 -8 107q-19 29 -77 46q-43 13 -60 13q-14 6 -40 8t-40 -4q-10 -4 -27.5 11.5t-17.5 30.5q0 10 15 27q6 7 32 33t32 36q10 18 40 38q10 6 24 18t30 20q22 15 28 24 q-117 -16 -205.5 -88t-128.5 -176zM376 -41q70 -21 131 -21q131 0 231 70q-26 46 -120 35q-24 -1 -67 -17q-45 -17 -48 -18q-73 -16 -78 -16q-7 -1 -16 -7.5t-20 -15.5t-13 -10zM624 723q4 -39 18 -53q14 -13 31 -6l33 12q6 1 20 2q24 -24 0 -48q-22 -22 -46 -58 q-24 -34 -1 -78q35 -66 98 -66q29 -1 44 -37q17 -37 17 -67q10 -82 -14 -144q-23 -45 14 -78q88 116 88 256q1 136 -79 245q-81 109 -207 153q-18 -25 -16 -33z" />
<glyph unicode="&#xf0b3;" d="M16 207q0 76 54.5 129t131.5 53l9.5 -1t10.5 -1q-2 17 -2 39q0 110 80 188q79 78 192 78q94 0 165.5 -55t94.5 -135q26 4 42 4q101 0 174 -70q71 -68 71.5 -169.5t-71.5 -170.5q-73 -69 -174 -70h-592q-76 0 -131 53.5t-55 127.5z" />
<glyph unicode="&#xf0b4;" d="M16 207q0 76 54.5 129t131.5 53l9.5 -1t10.5 -1q-2 17 -2 39q0 110 80 188q79 78 192 78q94 0 165.5 -55t94.5 -135q26 4 42 4q101 0 174 -70q71 -68 71.5 -169.5t-71.5 -170.5q-73 -69 -174 -70h-592q-76 0 -131 53.5t-55 127.5zM400 330q0 -23 31 -31q6 -3 43 -19 l-53 -116q-4 -12 -4 -22.5t8 -18.5q17 -10 35 10q100 101 137 151q15 18 15 32q0 20 -32 32h-4q-28 16 -38 16l51 120q6 0 6 20t-15.5 22t-27.5 -12l-26 -28l-38 -40l-29 -32q-36 -40 -47 -54q-12 -18 -12 -30z" />
<glyph unicode="&#xf0b5;" horiz-adv-x="440" d="M16 383q-6 13 86 123l184 214q48 53 72 77t26 22q6 -4 -76 -190.5t-80 -190.5t98 -44q94 -40 99 -58q5 -20 -178 -232t-191 -206q-4 4 36 96l81 186q41 92 39 100q-1 6 -96 46q-94 40 -100 57z" />
<glyph unicode="&#xf0b6;" horiz-adv-x="870" d="M16 168q126 -72 277 -52t259 127.5t128 258.5q20 148 -54 276q54 -26 98 -74q131 -130 131 -315.5t-131 -317t-317.5 -131.5t-317.5 132q-42 42 -73 96z" />
<glyph unicode="&#xf0b7;" horiz-adv-x="1057" d="M16 184l82 174l-82 174h102l114 -102h185l-127 410h102l230 -410h280q12 -1 37 -4q38 -5 47 -12q12 -6 37 -21q27 -15 17 -35q0 -32 -40 -50t-76 -19l-38 -3h-264l-230 -409h-102l127 409h-185l-114 -102h-102z" />
<glyph unicode="&#xf0b8;" horiz-adv-x="973" d="M15.5 405.5q0.5 8.5 12.5 12.5q6 4 232 84l448 158q222 78 223 78q13 4 22 -3.5t5 -19.5q-4 -8 -75.5 -321t-74.5 -320q-2 -14 -13 -19.5t-26 1.5l-143 76l-142 77l23 27l214 232l149 160q38 42 40 44q4 4 -1 9t-9 1l-563 -412l-309 123q-13 4 -12.5 12.5zM335 -8v208 l163 -84q-124 -110 -144 -130q-19 -14 -19 6z" />
<glyph unicode="&#xf0b9;" horiz-adv-x="993" d="M18 26q44 103 132 198q88 98 180 157q183 122 324 178l56 21q-67 0 -152.5 -16t-147.5 -38q-72 -26 -166 -86q-92 -59 -165 -145q-23 247 178 367q187 109 518 67q173 -23 201 -51q4 -5 -2 -10q-78 -42 -133 -112t-80 -135q-23 -63 -67 -135q-40 -71 -95 -108 q-141 -98 -391 -4q-68 -80 -117 -180q-13 -24 -48.5 -7t-24.5 39z" />
<glyph unicode="&#xf0ba;" horiz-adv-x="972" d="M16 352q-4 195 132 335q138 141 332 142t334 -133q138 -134 144 -330q2 -196 -134 -334q-138 -141 -332 -144q-196 -2 -334 134q-142 136 -142 330zM77 354q1 -96 47 -184l104 64q-28 60 -28 124q0 67 28 128l-104 63q-47 -90 -47 -195zM261 358q0 -92 65 -158 q67 -67 160.5 -67t159.5 67q66 65 66 158q0 94 -66 160t-160 66t-159.5 -66t-65.5 -160zM298 -4q87 -47 194 -47q103 5 183 47l-63 106q-62 -30 -125.5 -30t-124.5 30zM298 723l64 -107q56 29 124.5 29t125.5 -29l63 107q-89 47 -195 45q-95 0 -182 -45zM744 234l107 -64 q47 96 45 194q0 98 -45 185l-107 -63q29 -61 29 -128q0 -64 -29 -124z" />
<glyph unicode="&#xf0bb;" horiz-adv-x="605" d="M20 817q-14 36 15 49q31 19 49 -14l100 -196q82 22 158 -17q75 -38 104 -119l134 -387q29 -82 -18 -161q-46 -78 -142 -114q-96 -28 -180 10q-82 38 -105 120l-109 393q-22 77 8 142.5t85 102.5zM158 461q8 -27 33 -41t57 -6q26 8 40 34t5 58q-9 26 -34 40.5t-56 6.5 q-25 -9 -40 -35t-5 -57z" />
<glyph unicode="&#xf0bc;" d="M16 232q2 62 4 130l4 109q2 40 2 59q4 111 102 111h164q22 37 62 115q14 26 23 32t37 6h228q26 0 36.5 -7t23.5 -31q11 -20 61 -115h163q98 0 103 -111l11 -298h-466v102h-92v-102h-466zM42 180h440v-102h92v102h441q-3 -43 -11 -170q-6 -86 -92 -86h-768q-92 0 -92 86z M378 641h299l-29 55q-14 27 -43 27h-155q-29 0 -44 -27z" />
<glyph unicode="&#xf0bd;" d="M16 0v563q0 41 30.5 72t71.5 31h51v-768h-51q-42 0 -72 30t-30 72zM240 -102v768h114v106q98 47 173.5 47t174.5 -47v-106h112v-768h-574zM414 666h226v67q-54 25 -112 25q-57 0 -114 -25v-67zM886 -102v768h51q42 0 72.5 -30.5t30.5 -72.5v-563q0 -43 -30 -72.5 t-73 -29.5h-51z" />
<glyph unicode="&#xf0be;" horiz-adv-x="256" d="M16 358q0 48 32.5 80.5t79.5 32.5t79.5 -32.5t32.5 -80.5q0 -44 -33 -78t-79 -34t-79 34t-33 78z" />
<glyph unicode="&#xf0bf;" horiz-adv-x="614" d="M16 359q0 47 32.5 79.5t79.5 32.5t79.5 -32.5t32.5 -80.5q0 -44 -33 -78t-79 -34q-47 0 -79.5 33t-32.5 80zM374 359q0 47 33 79.5t80 32.5t79.5 -32.5t32.5 -80.5q0 -44 -34.5 -78t-78.5 -34q-46 0 -79 33t-33 80z" />
<glyph unicode="&#xf0c0;" horiz-adv-x="972" d="M16 358q0 48 32.5 80.5t79.5 32.5t79.5 -32.5t32.5 -80.5q0 -44 -33 -78t-79 -34t-79 34t-33 78zM374 358q0 48 33 80.5t80 32.5t79.5 -32.5t32.5 -80.5q0 -44 -34.5 -78t-78.5 -34t-78 34t-34 78zM732 358q0 48 33 80.5t80 32.5t80 -32.5t33 -80.5q0 -44 -33.5 -78 t-80 -34t-79.5 34t-33 78z" />
<glyph unicode="&#xf0c1;" horiz-adv-x="1015" d="M16 -106q0 4 6 10q52 60 65 148q12 86 49 122q48 38 96 28t86 -50t44 -84q6 -48 -31 -84q-87 -86 -233 -105q-29 -4 -48.5 -3.5t-27.5 4.5t-6 14zM278 268q69 92 106 125q127 124 352 294q232 174 260 149q27 -27 -151 -254q-181 -232 -299 -346q-37 -38 -127 -107 q-8 -6 -17 8q-18 35 -50 67t-66 48q-16 6 -8 16z" />
<glyph unicode="&#xf0c2;" horiz-adv-x="870" d="M16 414q0 164 122 279q124 115 297 115.5t297 -115.5q123 -115 123 -279q0 -19 -2 -35l-17 -174l-264 23l17 174v12q0 60 -45.5 101.5t-108.5 41.5t-108 -41.5t-45 -101.5v-12l16 -174l-264 -23l-16 174q-2 17 -2 35zM44 102l264 21l16 -168q2 -13 -6.5 -22t-21.5 -9 l-203 -16q-11 -2 -22 5.5t-11 18.5zM546 -45l16 168l266 -21l-16 -170q-4 -28 -32 -24l-206 16q-28 0 -28 31z" />
<glyph unicode="&#xf0c3;" d="M16 358q0 117 61 172q63 54 149 54q88 0 167.5 -43t134.5 -105q55 62 134.5 105t167.5 43q86 0 148 -54q62 -55 62 -172q0 -114 -62 -169.5t-148 -55.5q-88 0 -167 43t-135 106q-56 -62 -135 -105.5t-167 -43.5t-149 55.5t-61 169.5zM110 358.5q0 -135.5 116 -135.5 q70 0 137 41.5t109 93.5q-43 55 -109 95.5t-137 40.5q-116 0 -116 -135.5zM584 358q42 -54 109 -94.5t137 -40.5q117 0 117 135.5t-117 135.5q-70 0 -137 -41t-109 -95z" />
<glyph unicode="&#xf0c4;" horiz-adv-x="1056" d="M30 332q-30 26 0 55l348 303q32 26 72 27h489q43 0 73 -29.5t30 -73.5v-512q0 -42 -30.5 -72t-72.5 -30h-489q-40 0 -72 28zM460 230l74 -76l130 130l132 -130l74 76l-132 128l132 132l-74 73l-132 -129l-130 129l-74 -73l131 -132z" />
<glyph unicode="&#xf0c5;" horiz-adv-x="890" d="M16 305h434q20 0 35 15t15 36v432q159 -19 268 -142q108 -122 108 -286q0 -178 -126 -305t-306 -127q-164 0 -286 108q-120 106 -142 269zM16 412q18 149 124 254q104 105 252 122v-376h-376z" />
<glyph unicode="&#xf0c6;" horiz-adv-x="1057" d="M18 348q11 43 54 33l101 -25l-53 -82l-70 17q-43 11 -32 57zM22.5 -57.5q-14.5 24.5 1.5 47.5l382 602q8 16 29 20q19 6 37 -6l252 -160l232 334q10 17 28 20t35 -10q39 -24 12 -63l-258 -371q-25 -36 -63 -12l-250 160l-358 -564q-13 -22 -40 -22q-25 0 -39.5 24.5z M360 215l50 82l38 -8q13 -5 16 -9l270 -208l228 206q14 13 34 12t31 -16q34 -32 -2 -65l-258 -231q-13 -13 -31 -13q-15 0 -28 11l-294 224z" />
<glyph unicode="&#xf0c7;" horiz-adv-x="849" d="M16 -102v256q0 50 40 51h113q21 0 36 -15.5t15 -35.5v-256h-204zM322 -102v563q0 51 42 51h112q22 0 37 -15t15 -36v-563h-206zM630 -102v870q0 51 40 51h114q21 0 35.5 -15.5t14.5 -35.5v-870h-204z" />
<glyph unicode="&#xf0c8;" horiz-adv-x="1034" d="M16.5 -33.5q-2.5 7.5 5.5 17.5l235 294q19 23 41 2l76 -67q10 -8 21 -7t17 11l162 244q18 27 40 4l114 -107q20 -20 39 4l235 388q17 22 17 -4v-787h-987q-13 0 -15.5 7.5z" />
<glyph unicode="&#xf0c9;" d="M16 358q0 98 69 168q69 68 166 68q99 0 167 -69t68 -167q0 -73 -40 -132h164q-42 65 -42 132q0 98 70 168q68 68 166 68t167 -69t69 -167q0 -97 -69 -166t-167 -69h-553q-97 0 -166 69.5t-69 165.5zM118 358q0 -52 39 -92t93.5 -40t94 39.5t39.5 92.5q0 55 -39.5 94.5 t-94 39.5t-93.5 -39.5t-39 -94.5zM670 358q0 -52 40 -92t94 -40t93.5 39.5t39.5 92.5q0 55 -39.5 94.5t-93.5 39.5t-94 -40t-40 -94z" />
<glyph unicode="&#xf0ca;" d="M16 462q0 20 24 34l426 239q62 33 123 0l426 -239q25 -15 25 -34.5t-25 -33.5l-80 -45l-315 105q-24 36 -92 36q-38 0 -67.5 -15t-29.5 -42t29.5 -42t67.5 -15q27 0 36 4l299 -70l-274 -156q-61 -32 -123 0l-426 240q-24 14 -24 34zM186 244l342 -172l282 139 q-1 -8 -4 -28t-5.5 -31.5t-6.5 -25.5t-10 -22q-17 -26 -70 -46q-25 -10 -77.5 -40t-68.5 -38q-25 -11 -40 -10q-18 0 -42 12q-10 6 -42 24l-58 33q-26 15 -47 23q-73 31 -105 70q-31 37 -48 112zM863 344l72 39q5 -7 12 -29t17 -103q12 -85 -6 -202q-6 -27 -23 -31 q-15 -2 -34 5t-17 20q18 115 13 187q-4 65 -19 92z" />
<glyph unicode="&#xf0cb;" horiz-adv-x="1055" d="M16 4q8 14 180 566q2 8 10 8h98q10 0 10 -8q15 -40 40 -122l58 -182l42 -133q40 -126 40 -129q0 -4 -4 -4h-88q-6 0 -6 4l-51 170h-180q-49 -168 -51 -170q0 -4 -6 -4h-88q-4 0 -4 4zM181 246h147l-73 270zM530 223q0 86 61 152q50 51 117 67l-2 103q-143 -25 -150 -25 q-6 -1 -10 4l-4 14l-4 30q-2 15 -2 18q-4 2 0 4t8 2l160 28q0 111 -2 118q0 8 8 8q44 0 53 2q10 0 10 -8v-107q157 23 168 23q9 4 11 -7l8 -49q4 -10 -4 -12l-181 -31v-105h13q88 0 151 -37t88 -101q31 -86 -10 -181q-42 -97 -137 -163q-10 0 -12 2l-34 38q-2 6 2 10 q88 62 120.5 156t-11.5 152q-35 -84 -100 -160q-36 -42 -86.5 -66t-110.5 -16q-54 6 -86 42.5t-32 94.5zM601 223q0 -67 47 -73q28 -6 64 6l-4 219q-46 -15 -76.5 -58t-30.5 -94zM773 178q27 22 58.5 68.5t47 82t7.5 41.5q-37 19 -98 19q-2 0 -7 -1t-6 -1z" />
<glyph unicode="&#xf0cc;" horiz-adv-x="993" d="M15.5 223.5q0.5 20.5 16.5 36.5l563 564q15 14 37 14t36 -14l76 -78q-12 -23 -12 -50q0 -42 31 -72t73 -30q26 0 50 12l78 -78q14 -14 14 -36.5t-14 -37.5l-564 -562q-16 -17 -36.5 -17t-37.5 17l-77 78q13 20 12 48q0 44 -29.5 74.5t-73.5 30.5q-20 0 -50 -15l-76 78 q-17 17 -16.5 37.5zM152 278l267 -264l415 416l-264 264zM236 278l183 -182l333 334l-182 182z" />
<glyph unicode="&#xf0cd;" horiz-adv-x="993" d="M16 465q0 59 33 115l75 126q40 68 51 158q1 4 7 4t6 -4q11 -90 50 -158l76 -126q34 -56 33 -115q0 -67 -49.5 -115.5t-116.5 -48.5t-116 48.5t-49 115.5zM331 10q0 60 33 115l76 126q39 69 50 159q2 4 8 4q4 0 5 -4q11 -90 51 -159l74 -126q34 -55 34 -115 q0 -66 -49.5 -115t-116 -49t-116 49t-49.5 115zM646 465q0 89 71 175q31 38 56 100.5t33 123.5q1 4 7 4q5 0 5 -4q12 -90 52 -158l74 -126q34 -56 34 -115q0 -67 -50 -115.5t-116 -48.5t-116 48.5t-50 115.5z" />
<glyph unicode="&#xf0ce;" horiz-adv-x="604" d="M16 152q0 150 120 302q45 57 94 164q48 103 62 224q2 8 11 8t9 -8q14 -121 62 -224q49 -107 94 -164q121 -154 121 -302q0 -116 -85 -201q-84 -84 -202 -84t-202 84q-84 85 -84 201zM98 144q0 -25 17 -42.5t41 -17.5q60 0 60 70q0 96 43 252q1 4 5 17t6 17q2 6 -2 14 q-6 6 -15 7q-7 0 -13 -7l-40 -58l-50 -72q-15 -24 -34 -77q-19 -52 -18 -103z" />
<glyph unicode="&#xf0cf;" horiz-adv-x="957" d="M18 590q2 22 19 36q50 44 81 62q37 22 91 41q61 21 132 4q73 -17 163 -67q92 -52 158 -54q70 -4 103 16q37 22 91 68q39 31 72 -6q32 -41 -6 -74q-126 -112 -240 -112q-104 0 -228 72q-71 40 -121 52q-52 15 -95 0q-44 -13 -67 -29q-29 -18 -69 -52q-25 -23 -55.5 -6 t-28.5 49zM30 28q-32 42 7 74q44 40 63.5 53.5t68.5 36.5q50 24 93.5 25t103.5 -17q68 -17 138 -56q72 -40 122 -54q52 -14 95 0t67 30q28 18 68 52q39 33 72 -6q14 -16 11.5 -38t-17.5 -36l-67 -54q-29 -22 -79 -40t-94 -18q-100 0 -228 71q-71 40 -121 53q-55 15 -95 2 q-46 -15 -68 -30q-28 -20 -68 -54q-16 -14 -37 -11t-35 17zM30 291q-32 41 7 73q44 40 63.5 53.5t68.5 36.5q50 24 93.5 25t103.5 -16q68 -17 138 -57q72 -40 122 -54q52 -14 95 0t67 30q28 18 68 52q38 33 72 -6q32 -41 -6 -74l-67 -54q-29 -22 -79 -40t-94 -18 q-100 0 -228 72q-71 40 -121 52q-52 15 -95 0q-44 -13 -67 -29q-29 -19 -69 -53q-16 -14 -37 -11t-35 18z" />
<glyph unicode="&#xf0d0;" d="M16 102v512q0 42 30.5 72.5t71.5 30.5h819q42 0 72.5 -30.5t30.5 -72.5v-512q0 -42 -30 -72t-73 -30h-819q-42 0 -72 30t-30 72zM118 102h819v308h-819v-308zM118 563h819v51h-819v-51zM220 209v31h31v30h31v31h61v-31h-31v-30h-30v-31h-62zM220 270v31h31v-31h-31z M312 209v31h62v-31h-62zM374 240v61h61v-31h-31v-30h-30zM404 209v31h31v30h31v31h62v-31h-32v-30h-30v-31h-62zM496 209v31h32v-31h-32z" />
<glyph unicode="&#xf0d1;" horiz-adv-x="849" d="M16 51v615q0 42 30 72t72 30h571l145 -160v-557q0 -42 -30 -72t-72 -30h-614q-41 0 -71.5 30.5t-30.5 71.5zM220 461q0 -21 16 -36t36 -15h306q20 0 36 15t16 36v256h-410v-256zM476 461v205h102v-205h-102z" />
<glyph unicode="&#xf0d2;" horiz-adv-x="747" d="M16 -82v778q0 29 21 50.5t50 21.5l61 -154h451l61 154q29 0 50.5 -21.5t21.5 -50.5v-778q0 -30 -21 -51t-51 -21h-573q-29 0 -50 21t-21 51zM144 768h111l37 102h164l36 -102h113l-47 -102h-368z" />
<glyph unicode="&#xf0d3;" horiz-adv-x="911" d="M20 268q11 48 44 62q128 52 218 110q86 56 126 106q36 43 61 94q23 45 25 80q8 78 53 97q49 19 133 -72t146 -233q59 -140 68 -264q9 -123 -40 -144q-28 -12 -62 4q-38 16 -67 40q-38 29 -109 43.5t-145 6.5q-27 -4 -43 -18t-6 -38q26 -67 47 -112q4 -10 25 -22 q19 -12 24 -20q14 -36 -22 -48q-46 -20 -105 -40q-31 -10 -55 42q-24 58 -60 136q-6 14 -34 17q-28 4 -48 32l-20 -7q-14 -5 -19 -6.5t-16.5 -3.5t-19 -1t-17.5 5t-22 11q-41 25 -56 61q-16 31 -4 82zM570 668q-2 -42 10 -108q25 -144 110 -258q45 -58 70 -78q30 -23 36 -19 q10 5 11 39q2 38 -11 100q-28 136 -111 257q-41 59 -69 86q-29 27 -36 23q-10 -4 -10 -42z" />
<glyph unicode="&#xf0d4;" horiz-adv-x="747" d="M16 108v103q0 10 4 10.5t10 -8.5q34 -57 133 -90t211 -33t210 33t134 90q14 21 14 -2v-103q0 -74 -106 -138q-106 -62 -252 -62q-144 0 -251 62q-107 63 -107 138zM16 354v119q0 21 14 0q34 -51 133.5 -79t210 -28t210.5 27.5t136 79.5q7 17 12 0v-119q0 -69 -104 -116 q-104 -48 -254 -48q-148 0 -253 48q-105 46 -105 116zM16 608v66q0 56 105 95q107 40 253 40t252 -40t106 -95v-66q0 -60 -106 -101q-107 -42 -252.5 -42t-252.5 42q-105 41 -105 101z" />
<glyph unicode="&#xf0d5;" horiz-adv-x="954" d="M18 213q-8 55 14 99l162 382q22 48 74 48h417q51 0 76 -48l159 -382q27 -46 15 -99l-35 -189q-2 -20 -20 -35t-40 -15h-728q-21 0 -39.5 15.5t-20.5 34.5zM102 176l14 -76q2 -21 19 -37t40 -16h605q22 0 39 16t19 37l13 76q2 22 -10.5 39t-34.5 17h-660q-21 0 -33.5 -17 t-10.5 -39z" />
<glyph unicode="&#xf0d6;" horiz-adv-x="965" d="M16 312q-8 124 159 188q-17 90 -23 141q-8 57 107 107q113 50 291 50q179 0 293 -50q115 -50 106 -107l-46 -295l-33 -213q-11 -69 -15 -94q-1 -19 -38 -45q-36 -26 -109.5 -51t-157.5 -25q-85 0 -157 24q-73 25 -109 52q-36 26 -37 45q0 5 -5 31q94 -8 175 38t135 118 q28 0 49 21t21 50t-21 50t-51 21q-28 0 -50 -21t-22 -50q0 -21 10 -37q-44 -53 -111 -88.5t-141 -29.5q-103 10 -160 58q-56 46 -60 112zM87 318q5 -34 38 -61q34 -27 93 -40l-32 209q-104 -45 -99 -108zM236 628.5q0 -14.5 40 -35.5q44 -25 122.5 -42t151 -17t152.5 17 t124 42q40 21 40 35.5t-40 35.5q-44 25 -123 42t-153 17q-72 0 -151 -17t-123 -42q-40 -21 -40 -35.5z" />
<glyph unicode="&#xf0d7;" horiz-adv-x="583" d="M16 123q0 81 39.5 143t102.5 98v455q0 51 42 51h174q20 0 35.5 -15t15.5 -36v-455q63 -36 103 -98t40 -143q0 -115 -81 -196t-195.5 -81t-195 81t-80.5 196zM118 123q0 -71 51 -122.5t123 -51.5t123 51t51 123q0 59 -34 103t-85 60v380h-103v-377q-52 -15 -89 -61 t-37 -105z" />
<glyph unicode="&#xf0d8;" horiz-adv-x="829" d="M18 -16q-8 30 12 57l264 395q-26 52 -39 123q-10 59 7.5 111t53.5 89t83 61.5t99 33.5q110 20 200 -46q92 -66 110 -182q20 -119 -28 -220q-50 -101 -154 -120q-69 -12 -134 -2l-120 -198l-72 -12l-106 -170q-14 -28 -48 -33l-78 -15q-13 -4 -22.5 5t-11.5 23zM460 677 q-4 -10 4 -37q4 -14 32 -33q12 -8 68 -50q6 -5 43 -29q13 -8 19 -8q34 0 53 29q31 50 20.5 102.5t-51.5 81.5q-54 38 -111.5 18t-76.5 -74z" />
<glyph unicode="&#xf0d9;" horiz-adv-x="686" d="M16 717q0 51 36 87t86 36t86.5 -36t36.5 -87q0 -78 -73 -113v-116q0 -80 80 -80h167q31 73 113 74q50 0 86 -36t36 -87.5t-36 -87t-86 -35.5q-82 0 -113 76h-167q-44 0 -80 16v-199q0 -80 80 -80h167q31 74 113 74q50 0 86 -36t36 -87t-36 -87t-86 -36q-82 0 -113 76 h-167q-90 0 -135 55q-44 54 -44 121v475q-73 35 -73 113zM66 717q0 -29 22 -49.5t50.5 -20.5t50 20.5t21.5 49.5t-21 50t-51 21t-51 -21t-21 -50zM476 0q0 -28 21.5 -49t50 -21t50.5 21t22 49q0 30 -21 51t-51 21t-51 -21t-21 -51zM476 358q0 -28 21.5 -48.5t50 -20.5 t50.5 20.5t22 48.5q0 30 -21 51t-51 21t-51 -21t-21 -51z" />
<glyph unicode="&#xf0da;" horiz-adv-x="686" d="M16 51q0 80 73 115v387q-73 35 -73 113q0 50 36 86t86 36t86.5 -35.5t36.5 -86.5q0 -78 -73 -113v-209q42 30 140 62q56 17 86 29q32 13 55 46t27 74q-71 31 -71 111q0 50 36.5 86t86.5 36t86 -35.5t36 -86.5q0 -82 -75 -113q-13 -123 -91 -174q-39 -25 -66.5 -37 t-79.5 -28q-78 -26 -114 -48q-48 -30 -54 -102q71 -30 71 -113q0 -51 -36.5 -87t-86.5 -36t-86 36t-36 87zM68 51q0 -29 21 -49t49.5 -20t50 20t21.5 49t-21 50.5t-51 21.5q-28 0 -49 -21t-21 -51zM68 666q0 -29 21 -49.5t49.5 -20.5t50 20.5t21.5 49.5t-21 50.5t-51 21.5 q-28 0 -49 -21.5t-21 -50.5zM478 666q0 -29 20.5 -49.5t49 -20.5t50.5 20.5t22 49.5t-21 50.5t-51 21.5q-28 0 -49 -21t-21 -51z" />
<glyph unicode="&#xf0db;" horiz-adv-x="993" d="M16 0q0 80 73 114v118q0 66 44 120q45 56 135 56h102q78 0 78 53v143q-74 35 -74 113q0 51 36 87t86.5 36t87 -36t36.5 -87q0 -78 -74 -113v-143q0 -53 80 -53h102q87 0 132 -56q44 -54 44 -120v-118q74 -34 74 -114q0 -51 -36.5 -87t-86.5 -36t-86.5 36t-36.5 87 q0 80 74 114v118q0 80 -78 80h-102q-44 0 -80 12v-210q74 -34 74 -114q0 -51 -36.5 -87t-87 -36t-86.5 36t-36 87q0 80 74 114v210q-31 -13 -78 -12h-102q-36 0 -58 -23t-22 -57v-118q73 -34 73 -114q0 -51 -36.5 -87t-86.5 -36t-86 36t-36 87zM68 0q0 -28 21 -49t49.5 -21 t50 21t21.5 49q0 30 -21 51t-51 21q-28 0 -49 -21t-21 -51zM427 0q0 -28 20.5 -49t49.5 -21t50 21t21 49q0 30 -21 51t-51 21q-28 0 -48.5 -21t-20.5 -51zM427 717q0 -29 20.5 -49.5t49.5 -20.5t50 20.5t21 49.5t-21 50t-51 21q-28 0 -48.5 -21t-20.5 -50zM786 0 q0 -28 20 -49t49 -21t50 21t21 49q0 30 -21 51t-50 21t-49 -21t-20 -51z" />
<glyph unicode="&#xf0dc;" horiz-adv-x="276" d="M16 51q0 80 73 115v387q-73 35 -73 113q0 50 36 86t86 36t86.5 -35.5t36.5 -86.5q0 -78 -73 -113v-387q73 -35 73 -115q0 -51 -36.5 -87t-86.5 -36t-86 36t-36 87zM68 51q0 -29 21 -49t49.5 -20t50 20t21.5 49t-21 50.5t-51 21.5q-28 0 -49 -21t-21 -51zM68 666 q0 -29 21 -49.5t49.5 -20.5t50 20.5t21.5 49.5t-21 50.5t-51 21.5q-28 0 -49 -21.5t-21 -50.5z" />
<glyph unicode="&#xf0dd;" horiz-adv-x="686" d="M16 51q0 80 73 115v387q-73 35 -73 113q0 50 36 86t86 36t86.5 -35.5t36.5 -86.5q0 -78 -73 -113v-387q73 -35 73 -115q0 -51 -36.5 -87t-86.5 -36t-86 36t-36 87zM68 51q0 -29 21 -49t49.5 -20t50 20t21.5 49t-21 50.5t-51 21.5q-28 0 -49 -21t-21 -51zM68 666 q0 -29 21 -49.5t49.5 -20.5t50 20.5t21.5 49.5t-21 50.5t-51 21.5q-28 0 -49 -21t-21 -51zM425 51q0 80 73 115v387q-73 35 -73 113q0 50 36.5 86t86.5 36t86 -35.5t36 -86.5q0 -78 -73 -113v-387q73 -35 73 -115q0 -51 -36 -87t-86 -36t-86.5 36t-36.5 87zM478 51 q0 -29 20.5 -49t49 -20t50.5 20t22 49t-21 50.5t-51 21.5q-28 0 -49 -21t-21 -51zM478 666q0 -29 20.5 -49.5t49 -20.5t50.5 20.5t22 49.5t-21 50.5t-51 21.5q-28 0 -49 -21.5t-21 -50.5z" />
<glyph unicode="&#xf0de;" horiz-adv-x="911" d="M20 234l17 42l25 64q13 30 18 41q38 77 48 83q2 1 12 8l18 12q17 14 42 14h53l73 -6q38 52 108 126q66 68 126 110.5t144 73.5q86 32 168 19q18 0 21 -20q10 -87 -19 -175t-78 -152q-101 -136 -188 -204l-36 -28q6 -58 8 -84q2 -34 -8 -60q-4 -10 -7.5 -22t-5 -16 t-6 -10.5t-11 -11.5t-20.5 -14l-34 -20q-11 -6 -16 -8.5t-28 -11.5l-40 -18q-46 -22 -86 -38q-31 -11 -46 4t-4 46l41 112l-133 136l-108 -42q-31 -13 -45 3t-3 47zM600 602q0 -34 22 -57q23 -23 55.5 -23t55.5 24t23 56.5t-23 56t-55.5 23.5t-55 -23.5t-22.5 -56.5z" />
<glyph unicode="&#xf0df;" d="M16 123q0 233 148 391q150 160 364 160q74 0 136 -18l-71 -88q-37 4 -65 4q-174 0 -292 -130q-118 -132 -118 -319q0 -11 1 -27l2 -24q0 -8 -3.5 -17.5t-9.5 -16.5q-15 -16 -35 -18t-37 13q-16 13 -18 35q0 4 -1 27t-1 28zM431 182q39 62 219 291q184 233 199 225 q13 -6 -99 -284q-111 -280 -140 -334q-52 -88 -140 -37t-39 139zM855 398l21 56q18 46 22 54q142 -158 142 -385v-17v-14v-12q0 -8 -1 -12t-2 -10.5t-3.5 -10t-5.5 -7.5t-7 -8q-13 -14 -35 -14h-4q-22 4 -35.5 20t-11.5 38q2 18 2 47q0 153 -82 275z" />
<glyph unicode="&#xf0e0;" horiz-adv-x="1014" d="M15.5 157.5q2.5 26.5 42.5 42.5l193 78l-23 -61q0 -48 82 -84q80 -35 197 -35t197 35q82 36 84 84l-23 61l193 -78q42 -16 42 -42t-38 -48l-361 -192q-38 -22 -93.5 -22t-93.5 22l-362 192q-39 21 -36.5 47.5zM276 346l36 102q19 54 21 60q11 -32 64 -49t110 -17 q59 0 111 17t63 49q2 -6 21 -60l36 -102q-4 -39 -72 -66q-67 -28 -159.5 -28t-159.5 28q-67 27 -71 66zM380 639l53 145q10 36 73.5 35.5t75.5 -35.5q12 -34 52 -145q-30 -45 -127 -45t-127 45z" />
<glyph unicode="&#xf0e1;" horiz-adv-x="1013" d="M16 352q-6 206 137.5 351t346.5 147q204 2 349 -140q145 -140 149 -344q2 -204 -139 -350q-141 -144 -346 -149q-205 -2 -349 140q-148 143 -148 345zM120 354q1 -162 116 -273q114 -111 277 -109q161 2 273 116q111 114 110 276t-118 274q-114 112 -275 110t-273 -117 q-112 -113 -110 -277zM238 358q0 66 38 107t100 41q89 0 127 -68l-63 -32q-18 36 -54 36q-62 0 -62 -84q0 -82 62 -82q41 0 60 42l57 -32q-19 -36 -51 -52q-34 -21 -72 -21q-64 0 -103 39.5t-39 105.5zM511 358q0 65 39 109q39 39 100 39q86 0 123 -68l-61 -32 q-18 36 -54 36q-63 0 -63 -84q0 -36 16 -59t47 -23q44 0 58 42l59 -32q-17 -31 -49.5 -52t-73.5 -21q-65 0 -102 39q-39 37 -39 106z" />
<glyph unicode="&#xf0e2;" horiz-adv-x="1013" d="M16 358q0 206 144 348q145 144 347 144q205 0 348 -143.5t143 -348.5q0 -201 -143 -346t-348 -145q-203 0 -347 144.5t-144 346.5zM106 358q0 -166 117.5 -283.5t283.5 -117.5t283.5 117.5t117.5 283.5q0 168 -118 285t-283 117t-284 -117q-118 -117 -117 -285zM374 280 h57v-239h151v239h58v202q0 12 -10 21t-23 9h-201q-13 0 -22.5 -9t-9.5 -21v-202zM440 608q0 -70 67 -70q69 0 69 70t-69 70q-67 0 -67 -70z" />
<glyph unicode="&#xf0e3;" horiz-adv-x="1013" d="M16 358q0 206 144 348q145 144 347 144q205 0 348 -143.5t143 -348.5q0 -201 -143 -346t-348 -145q-203 0 -347 144.5t-144 346.5zM106 358q0 -166 117.5 -283.5t283.5 -117.5q118 0 210.5 59.5t141.5 149.5l-182 82q-7 -45 -46 -75.5t-89 -35.5v-75h-58v75 q-80 0 -149 59l67 68q52 -45 111 -45q25 0 43 12.5t18 36.5q0 19 -14 31q-49 21 -104 47q-66 26 -184 80l-144 66q-22 -62 -22 -134zM171 578l187 -84q12 38 46 63q32 23 80 25v76h58v-76q70 -6 122 -46l-63 -65q-44 29 -86 29q-57 0 -57 -39q0 -8 4 -13l62 -28 q20 -8 61 -27t61 -27l248 -110q14 46 14 102q0 168 -118 285t-283 117q-109 0 -196 -51t-140 -131z" />
<glyph unicode="&#xf0e4;" horiz-adv-x="1013" d="M16 358q0 206 144 348q145 144 347 144q205 0 348 -143.5t143 -348.5q0 -201 -143 -346t-348 -145q-203 0 -347 144.5t-144 346.5zM106 358q0 -166 117.5 -283.5t283.5 -117.5q119 0 210.5 59t141.5 150l-252 110h-178q11 -40 27 -57q38 -41 106 -41q45 0 94 20l19 -92 q-57 -30 -127 -30q-131 0 -201 94q-35 43 -47 106h-53v60h45v14q0 2 1 12t1 13h-47v57h10l-129 58q-22 -62 -22 -132zM169 578l162 -72q6 12 29 39q73 84 188 83q70 0 125 -24l-25 -94q-43 20 -90 20q-66 0 -102 -44q-10 -10 -16 -30l56 -24h140v-57h-8l268 -119 q12 49 12 102q0 168 -118 285t-283 117q-109 0 -197.5 -51t-140.5 -131z" />
<glyph unicode="&#xf0e5;" horiz-adv-x="1013" d="M16 358q0 206 144 348q145 144 347 144q205 0 348 -143.5t143 -348.5q0 -201 -143 -346t-348 -145q-203 0 -347 144.5t-144 346.5zM106 358q0 -166 117.5 -283.5t283.5 -117.5q113 0 203.5 55.5t140.5 141.5l-155 69v-69h-130v-111h-120v111h-128v76h128v36l-13 25h-115 v75h56l-250 111q-18 -55 -18 -119zM165 568l161 -72l-54 100h130l78 -170l48 -20l84 190h130l-124 -230h78v-34l196 -88q16 58 16 114q0 168 -118 285t-283 117q-113 0 -202 -54t-140 -138zM566 230h115l-109 48l-6 -12v-36z" />
<glyph unicode="&#xf0e6;" horiz-adv-x="1013" d="M16 358q0 206 144 348q145 144 347 144q205 0 348 -143.5t143 -348.5q0 -201 -143 -346t-348 -145q-203 0 -347 144.5t-144 346.5zM106 358q0 -166 117.5 -283.5t283.5 -117.5t283.5 117.5t117.5 283.5q0 168 -118 285t-283 117t-284 -117q-118 -117 -117 -285zM251 428 l96 -96l99 96h-38q13 88 111 88q59 0 86 -43.5t27 -116.5q0 -70 -29 -117t-86 -47q-103 0 -109 88h-122q12 -92 72 -140q63 -52 145 -52q109 0 184 76q69 76 69 188q0 118 -68 192t-183 74q-90 0 -147 -52t-70 -138h-37z" />
<glyph unicode="&#xf0e7;" horiz-adv-x="1013" d="M16 358q0 206 144 348q145 144 347 144q205 0 348 -143.5t143 -348.5q0 -201 -143 -346t-348 -145q-203 0 -347 144.5t-144 346.5zM106 358q0 -166 117.5 -283.5t283.5 -117.5t283.5 117.5t117.5 283.5q0 168 -118 285t-283 117t-284 -117q-118 -117 -117 -285zM328 234 h357v84h-357v-84zM328 391h357v84h-357v-84z" />
<glyph unicode="&#xf0e8;" horiz-adv-x="1013" d="M16 358q0 206 144 348q145 144 347 144q205 0 348 -143.5t143 -348.5q0 -201 -143 -346t-348 -145q-203 0 -347 144.5t-144 346.5zM106 358q0 -166 117.5 -283.5t283.5 -117.5q119 0 210.5 59t141.5 150l-434 192q1 -52 29 -98q26 -43 78 -43q38 0 71 33l72 -86 q-15 -6 -19 -16q-62 -44 -139 -44q-88 0 -162.5 59.5t-74.5 192.5q0 34 6 64l-158 70q-22 -62 -22 -132zM169 578l151 -68q67 104 201 104q91 0 154 -55l-80 -82q-29 29 -67 29q-53 0 -82 -52l450 -198q12 49 12 102q0 168 -118 285t-283 117q-109 0 -197.5 -51t-140.5 -131 z" />
<glyph unicode="&#xf0e9;" horiz-adv-x="1013" d="M16 358q0 206 144 348q145 144 347 144q205 0 348 -143.5t143 -348.5q0 -201 -143 -346t-348 -145q-203 0 -347 144.5t-144 346.5zM106 358q0 -166 117.5 -283.5t283.5 -117.5t283.5 117.5t117.5 283.5q0 168 -118 285t-283 117t-284 -117q-118 -117 -117 -285zM304 358 q0 -116 46 -199t157 -83t157 83t46 199q0 120 -46 202.5t-157 82.5t-157 -83t-46 -202zM419 358q0 178 88 178q7 0 19 -4q19 -18 6 -42l-109 -199q-4 44 -4 67zM468 236l121 208q6 -44 6 -86q0 -176 -88 -176q-2 0 -9.5 1t-9.5 1q0 2 -2 2q-4 0 -6 2q-34 17 -12 48z" />
<glyph unicode="&#xf0ea;" horiz-adv-x="1013" d="M16 358q0 206 144 348q145 144 347 144q205 0 348 -143.5t143 -348.5q0 -201 -143 -346t-348 -145q-203 0 -347 144.5t-144 346.5zM106 358q0 -166 117.5 -283.5t283.5 -117.5t283.5 117.5t117.5 283.5q0 168 -118 285t-283 117t-284 -117q-118 -117 -117 -285zM280 246 q0 -12 8 -20.5t18 -8.5h106v-107q0 -10 9 -18t21 -8h266q11 0 19.5 8t8.5 18v363q0 10 -8.5 18.5t-19.5 8.5h-107v106q0 12 -8.5 20.5t-18.5 8.5h-270q-24 -8 -24 -29v-360zM333 272v308h215v-80h-111q-25 -10 -25 -27v-201h-79zM466 137v309h215v-309h-215z" />
<glyph unicode="&#xf0eb;" horiz-adv-x="1013" d="M16 358q0 206 144 348q145 144 347 144q205 0 348 -143.5t143 -348.5q0 -201 -143 -346t-348 -145q-203 0 -347 144.5t-144 346.5zM106 358q0 -166 117.5 -283.5t283.5 -117.5t283.5 117.5t117.5 283.5q0 168 -118 285t-283 117t-284 -117q-118 -117 -117 -285zM179 264 l127 -55l127 53l145 -60l122 -50l6 -2l122 53l10 4v139q-36 14 -108 45v121l-301 125l-133 -57v-140l2 -2l-119 -49v-125zM462 282v88l225 -92v-2h2v-88l-2 2v-2zM632 334l78 32l74 -30l-80 -33zM720 190v86l88 38v-86z" />
<glyph unicode="&#xf0ec;" horiz-adv-x="972" d="M16 334q0 116 75 198q-8 6 -0.5 82.5t33.5 143.5q95 -12 234 -106q48 12 128 12q86 0 130 -12q64 44 122 69t84 31l27 6q27 -66 34 -143t-1 -83q76 -82 76 -198q0 -208 -128 -301q-38 -27 -68.5 -41t-77.5 -22q-54 -8 -110 -9q-6 0 -43 -1t-45 -1t-44 1t-44 1 q-112 0 -184 30q-38 15 -76 45t-61 64q-61 86 -61 234zM142 215q0 -127 86 -168t256 -41h4q172 0 258 41t86 168q0 57 -34.5 102t-87.5 53q-38 6 -115 0q-79 -6 -107 -6h-4q-21 0 -86.5 5t-79.5 5q-80 3 -122 -36q-54 -47 -54 -123zM257 200.5q0 35.5 18.5 64t48.5 28.5 q29 0 47.5 -28.5t18.5 -64t-18 -64t-48 -28.5t-48.5 28.5t-18.5 64zM582 200.5q0 35.5 19 64t49 28.5q28 0 47 -28.5t19 -64t-18.5 -64t-47.5 -28.5q-30 0 -49 28.5t-19 64z" />
<glyph unicode="&#xf0ed;" horiz-adv-x="1013" d="M16 358q0 206 144 348q145 144 347 144q205 0 348 -143.5t143 -348.5q0 -201 -143 -346t-348 -145q-203 0 -347 144.5t-144 346.5zM270 346q0 -188 192 -188h90q192 0 192 188q0 56 -38 100q4 4 0 42q-2 36 -17 73q-45 -6 -117 -53q-19 6 -65 6q-41 0 -65 -6 q-54 35 -103 51l-15 2q-14 -37 -17 -73q-3 -38 1 -42q-39 -44 -38 -100zM333 286q0 -66 44 -86q46 -20 130 -20t130 20q44 20 44 86q0 36 -27 62q-23 18 -62 18q-9 0 -42 -2t-43.5 -2t-43 2t-41.5 2q-39 0 -62 -18q-27 -26 -27 -62zM392 278q0 48 33 48t33 -48 q0 -17 -9 -31.5t-24 -14.5t-24 14.5t-9 31.5zM556 278q0 48 33 48q15 0 25 -14.5t10 -33.5q0 -17 -10.5 -31.5t-25 -14.5t-23.5 14.5t-9 31.5z" />
<glyph unicode="&#xf0ee;" horiz-adv-x="952" d="M16 359q0 85 58 144.5t142 59.5t142.5 -59.5t58.5 -144.5t-59 -145q-61 -60 -142 -60t-141 60q-59 60 -59 145zM536 359q0 85 58 144.5t142 59.5t142.5 -59.5t58.5 -144.5t-59 -145q-61 -60 -141.5 -60t-141.5 60q-59 60 -59 145z" />
<glyph unicode="&#xf0ef;" horiz-adv-x="1013" d="M16 358q0 206 144 348q145 144 347 144q205 0 348 -143.5t143 -348.5q0 -201 -143 -346t-348 -145q-203 0 -347 144.5t-144 346.5zM274 358q0 -40 30.5 -71t71.5 -31t71.5 31t30.5 71q0 42 -30.5 73.5t-71.5 31.5t-71.5 -31.5t-30.5 -73.5zM538 358q0 -40 29.5 -71 t70.5 -31q42 0 72 30t30 72q0 44 -29.5 74.5t-72.5 30.5q-41 0 -70.5 -31.5t-29.5 -73.5z" />
<glyph unicode="&#xf0f0;" horiz-adv-x="953" d="M16 547q6 6 21 25l25 28q32 36 103 91q73 57 127 69q60 12 91 -43q25 -41 39 -133q22 -130 26 -146q28 -108 38 -137q12 -29 19 -40q8 -11 19 -11q42 0 128 170q44 78 7 127t-115 2q23 130 143 193q107 55 187 8q82 -48 59 -178q-31 -191 -175 -360q-144 -171 -251 -242 q-34 -20 -63.5 -20.5t-55.5 17t-45 39.5t-31 47q-14 29 -80 244.5t-76 228.5q-27 21 -84 -16l-20 -14z" />
<glyph unicode="&#xf0f1;" horiz-adv-x="1013" d="M16 358q0 206 144 348q145 144 347 144q205 0 348 -143.5t143 -348.5q0 -201 -143 -346t-348 -145q-203 0 -347 144.5t-144 346.5zM270 440l18 -24q6 6 27 17t26 -1q5 -7 38 -116t40 -124q36 -72 98 -42q55 36 127 122q70 85 88 182q14 84 -49 97q-63 15 -113 -41 q-28 -28 -34 -68q38 25 57 -0.5t-2 -64.5q-44 -86 -65 -86q-15 0 -38 96q-2 8 -4 25l-7 36q-4 19 -5 26q-3 16 -7 27.5t-11.5 25t-18.5 19.5t-27 3q-26 -6 -60 -32.5t-58 -51.5z" />
<glyph unicode="&#xf0f2;" horiz-adv-x="972" d="M16 64q18 -2 46 -2q134 0 240 82q-66 2 -114 39.5t-66 94.5q9 -4 34 -4q27 0 52 6q-64 14 -109 67t-45 124v2q38 -21 86 -25q-86 60 -86 162q0 48 27 96q159 -193 399 -200q-6 18 -6 43q0 80 57 136.5t137 56.5q84 0 140 -60q60 12 123 45q-19 -67 -84 -107q56 9 111 32 q-38 -58 -97 -101v-25q0 -132 -61 -256q-62 -124 -190 -208q-130 -84 -298 -84q-162 0 -296 86z" />
<glyph unicode="&#xf0f3;" horiz-adv-x="1013" d="M16 358q0 206 144 348q145 144 347 144q205 0 348 -143.5t143 -348.5q0 -201 -143 -346t-348 -145q-203 0 -347 144.5t-144 346.5zM284 203q68 -43 147 -43q125 0 201 85t76 191v12q29 23 46 50q-34 -14 -54 -14q30 18 42 52q-29 -16 -61 -22q-29 28 -71 28 q-40 0 -68.5 -28t-28.5 -68q0 -2 1 -11t1 -11q-124 6 -199 102q-14 -25 -14 -49q0 -50 45 -79q-27 0 -45 12v-2q0 -36 22.5 -63t55.5 -31q-16 -4 -24 -5q-10 0 -19 3q19 -68 90 -68q-50 -42 -121 -41h-22z" />
<glyph unicode="&#xf0f4;" horiz-adv-x="542" d="M16 350v152h155v88q0 94 60 161.5t151 67.5h146v-159h-146q-16 0 -26.5 -17t-10.5 -37v-104h183v-152h-183v-452h-174v452h-155z" />
<glyph unicode="&#xf0f5;" horiz-adv-x="1013" d="M16 358q0 206 143 349t348 143t348 -143.5t143 -348.5q0 -201 -143 -346t-348.5 -145t-348.5 145t-142 346zM366 354h78v-227h88v227h92v76h-92v54q0 28 18 28h74v80h-74q-45 0 -75.5 -34t-30.5 -83v-45h-78v-76z" />
<glyph unicode="&#xf0f6;" horiz-adv-x="911" d="M16 18v662q0 44 32.5 76t77.5 32h660q44 0 77 -32t33 -76v-662q0 -44 -33 -77t-77 -33h-166v318h116v136h-116v72q0 30 28 31h88v155h-98q-76 0 -127 -55.5t-51 -134.5v-68h-106v-136h106v-318h-334q-44 0 -77 33t-33 77z" />
<glyph unicode="&#xf0f7;" horiz-adv-x="948" d="M16 98.5q0 61.5 32.5 103.5t84.5 58q91 28 163 29h2q-33 46 -33 88l3 14h-15q-65 0 -113 31q-76 45 -76 164q0 54 24 100.5t60 69.5q76 52 154 53h236v-4q0 -23 -80 -37q-28 0 -39 -6q40 -20 54.5 -56t14.5 -100q0 -104 -69 -162q-39 -38 -39 -55t51 -65 q107 -92 107 -182q0 -144 -119 -200q-69 -34 -154 -34h-4l-4 2q-2 -2 -4 -2q-59 0 -132 26q-48 17 -76.5 60t-28.5 104.5zM118 98q4 -55 59 -83.5t122 -22.5t107 41q42 38 38 90q-4 55 -45 87t-105 32h-16q-61 -2 -112.5 -44t-47.5 -100zM176 568.5q14 -51.5 47 -84.5 q34 -34 73 -34q10 0 18 2q44 13 65 68.5t3 114.5q-31 111 -125 111q-10 0 -21 -2q-40 -13 -59 -64q-15 -60 -1 -111.5zM530 360v96h153v154h97v-154h153v-96h-153v-153h-97v153h-153z" />
<glyph unicode="&#xf0f8;" horiz-adv-x="1013" d="M16 358q0 206 144 348q145 144 347 144q205 0 348 -143.5t143 -348.5q0 -201 -143 -346t-348 -145q-203 0 -347 144.5t-144 346.5zM276 228q0 -42 28 -65q22 -19 41 -25.5t49 -6.5h8q42 0 76 17q62 30 62 100q0 45 -54 94q-26 24 -26 33q0 13 20 27q36 34 35 82 q0 59 -37 79q4 4 20 5q42 4 42 16v4h-119q-29 0 -46 -8t-42 -29q-33 -29 -33 -78q0 -45 25.5 -71.5t70.5 -26.5h6q-4 -23 17 -51h-2q-141 0 -141 -96zM326 228q0 30 24 50t58 23h9q31 0 52 -16.5t23 -44.5q2 -29 -21 -46.5t-54 -19.5q-34 -4 -61.5 11t-29.5 43zM356 467 q-6 29 2 55q12 33 40 33q44 0 62 -57q8 -31 -1 -58.5t-32 -33.5h-10q-43 0 -61 61zM534 360h78v-78h48v78h78v50h-78v78h-48v-78h-78v-50z" />
<glyph unicode="&#xf0f9;" horiz-adv-x="827" d="M16 514q4 142 107 240q103 97 239 114q168 19 297 -58t147 -224q26 -180 -68 -325q-92 -145 -258 -132q-23 2 -42.5 9.5t-30.5 13.5t-32 21q-24 17 -32 21q-25 -126 -59 -216q-32 -82 -98 -132q-10 124 -6 172q2 28 10 64q18 98 48 208q18 60 25 101q-25 52 -19 119 q4 62 47.5 107t102.5 22q74 -29 32 -157q-28 -88 -33 -106q-15 -51 -4 -92q10 -40 65 -50q73 -16 126 40t74 132q21 84 10 168q-11 86 -54 130q-63 66 -156 72q-98 6 -171.5 -36t-117.5 -118q-47 -78 -33 -174q5 -23 22 -52q22 -38 23 -54t-19 -64q-149 36 -142 236z" />
<glyph unicode="&#xf0fa;" horiz-adv-x="1013" d="M16 358q0 206 143 349t348 143t348 -143.5t143 -348.5q0 -201 -143 -346t-348.5 -145t-348.5 145t-142 346zM306 438q-4 -101 72 -118q9 23 9 31.5t-10 26.5q-10 16 -11 28q-14 98 80 147t161 -19q49 -48 21 -151q-29 -101 -100 -88q-42 8 -34 55q6 46 24 88 q16 42 -22 62q-42 18 -66 -34q-24 -53 1 -91q-5 -25 -21 -85q-17 -64 -19 -90q-1 -12 1 -100q53 38 80 176q48 -32 68 -32q84 -8 131 65t35 166q-12 75 -76 113q-68 39 -150 28q-66 -6 -120 -57q-52 -49 -54 -121z" />
<glyph unicode="&#xf0fb;" horiz-adv-x="604" d="M16 444v134q109 36 157 132q25 55 31 120h133v-238h221v-148h-221v-241q0 -85 8 -105q11 -25 33 -36q30 -21 70 -21q69 0 141 47v-148q-99 -52 -213 -52q-60 0 -113 16q-52 19 -84 47q-36 31 -47 65q-14 32 -14 98v330h-102z" />
<glyph unicode="&#xf0fc;" horiz-adv-x="1013" d="M16 358q0 206 144 348q145 144 347 144q205 0 348 -143.5t143 -348.5q0 -201 -143 -346t-348 -145q-203 0 -347 144.5t-144 346.5zM349 402h51v-166q0 -54 33 -82q13 -14 41 -25q35 -8 58 -8q58 0 108 27v75q-37 -25 -72 -25q-17 0 -36 11q-14 8 -15 19q-6 12 -6 52v122 h113v75h-113v121h-65q-8 -45 -17 -64t-33 -38q-24 -20 -47 -27v-67z" />
<glyph unicode="&#xf0fd;" horiz-adv-x="952" d="M16 715q0 44 29 71t75 27t74 -27t30 -71q0 -43 -30.5 -71t-75.5 -28q-43 0 -72.5 28.5t-29.5 70.5zM22 -94v632h196v-632h-196zM331 538h169l11 -88h4q61 103 195 103q110 0 168.5 -73.5t58.5 -199.5v-374h-197v350q0 137 -100 137q-70 0 -100 -73q-6 -13 -6 -50v-364 h-199v430q0 100 -4 202z" />
<glyph unicode="&#xf0fe;" horiz-adv-x="1013" d="M16 358q0 206 144 348q145 144 347 144q205 0 348 -143.5t143 -348.5q0 -201 -143 -346t-348 -145q-203 0 -347 144.5t-144 346.5zM284 565q0 -49 53 -49t53 49t-53 49q-21 0 -37 -14t-16 -35zM288 156h98v319h-98v-319zM444 475q2 -39 2 -103v-216h100v184q0 20 4 24 q12 40 51 40q49 0 49 -70v-178h100v188q0 62 -29.5 101t-84.5 39q-68 0 -98 -52h-2l-6 43h-86z" />
<glyph unicode="&#xf0ff;" horiz-adv-x="972" d="M16 358.5q0 194.5 138 333t332.5 138.5t333 -138.5t138.5 -333t-138.5 -332.5t-333 -138t-332.5 138t-138 332.5zM85 358q0 -153 103 -268q8 16 12 22q44 63 106 122q38 36 96.5 70t112.5 52q7 4 15 4q-12 32 -34 70q-187 -58 -411 -58v-14zM93 442q187 0 371 50 q-49 86 -125 197q-19 29 -25 34q-82 -40 -141 -113.5t-80 -167.5zM230 49q6 -6 8 -6zM238 43q112 -86 248 -86q78 0 158 33q-24 144 -86 305l-2 -2q-221 -76 -316 -248zM390 750zM392 750q81 -107 150 -234q142 54 208 144l2 2q-118 100 -266 100q-50 0 -94 -12zM572 454 q14 -28 27 -56l11 -21q112 13 235 -7q36 -6 43 -8q0 143 -90 252l-8 -10q-19 -24 -70 -64q-66 -52 -148 -86zM634 314q53 -150 78 -288q142 94 172 269q-6 3 -40 11q-106 25 -210 8z" />
<glyph unicode="&#xf100;" horiz-adv-x="1013" d="M16 358q0 206 144 348q145 144 347 144q205 0 348 -143.5t143 -348.5q0 -201 -143 -346t-348 -145q-203 0 -347 144.5t-144 346.5zM268 358q0 -97 69 -168t170 -71q100 0 170.5 70.5t70.5 168.5q0 101 -70.5 171.5t-170.5 70.5q-101 0 -170 -70q-69 -72 -69 -172z M306 358v4q110 0 205 29l15 -29l-5 -2q-45 -14 -84 -44q-57 -46 -81 -88q-50 59 -50 130zM312 404q19 94 107 136q35 -44 73 -112q-92 -24 -180 -24zM386 200q42 82 156 124q34 -92 40 -150q-36 -16 -75 -16q-71 0 -121 42zM464 555q12 4 43 4q75 0 131 -47 q-33 -43 -102 -70q-25 46 -72 113zM554 408q75 29 110 76q44 -54 44 -120q-52 8 -92 8q-27 0 -46 -2q-2 2 -2 5q0 4 -2 4q-6 10 -12 29zM584 334q17 2 40 2q34 0 82 -10q-17 -84 -84 -132q-6 59 -38 140z" />
<glyph unicode="&#xf101;" d="M16 198v136h176v-136q0 -20 17 -36t36 -16t36 16t17 36v322q0 94 68 161t161 67t162 -67q67 -67 67 -161v-61l-104 -35l-72 35v61q0 22 -15 38t-37 16q-21 0 -37.5 -16t-16.5 -38v-322q0 -94 -67.5 -161t-162 -67t-161.5 67t-67 161zM580 198v138l72 -33l104 33v-138 q0 -20 17 -36t37 -16q22 0 39 15t17 37v136h174v-136q0 -94 -68 -161t-162 -67t-162 67t-68 161z" />
<glyph unicode="&#xf102;" horiz-adv-x="1013" d="M16 358q0 206 143 349t348 143q201 0 347 -144q144 -143 144 -348q0 -202 -144 -346.5t-347 -144.5q-206 0 -349 145t-142 346zM247 282q0 -46 34.5 -80t81.5 -34t81 34t34 80v164q0 27 29 27q27 0 27 -27v-30l34 -18l54 18v30q0 48 -34 81.5t-81 33.5t-82 -33.5 t-35 -81.5v-164q0 -26 -26.5 -26t-26.5 26v70h-90v-70zM534 282q0 -46 34 -80t82 -34q47 0 81 34t34 80v70h-88v-70q0 -26 -27 -26q-28 0 -28 26v70l-54 -16l-34 16v-70z" />
<glyph unicode="&#xf103;" d="M16 350q0 132 82 214q80 81 192 81q114 0 171 -46q57 -45 93 -163l37 -118q49 -150 207 -150q122 0 122 62q0 55 -80 73l-79 19q-137 36 -137 155q0 91 59 129q61 39 149 39q189 0 204 -149l-118 -14q-6 71 -92 71q-84 0 -84 -63q0 -52 68 -68l76 -16q154 -38 154 -170 q0 -164 -244 -164q-140 0 -209 54q-71 54 -103 152l-36 120q-4 10 -9.5 26t-8 23t-7 17t-10 19t-13.5 20q-34 44 -106 44q-66 0 -116 -47.5t-50 -145.5q0 -82 47 -133q48 -51 113 -51q62 0 131 58l35 -103q-66 -53 -172 -53q-110 0 -188 74q-79 76 -78 204z" />
<glyph unicode="&#xf104;" horiz-adv-x="1013" d="M16 358q0 206 143 349t348 143q201 0 347 -144q144 -143 144 -348q0 -202 -144 -346.5t-347 -144.5q-206 0 -349 145t-142 346zM247 354q0 -60 38.5 -99.5t96.5 -39.5q56 0 88 27l-18 51q-29 -29 -68 -29q-35 0 -57.5 27t-22.5 65q0 44 22.5 71t61.5 27q35 0 50.5 -18 t27.5 -57l18 -59q32 -105 158 -105q123 0 123 82q0 67 -78 86l-39 8q-33 8 -32 35q0 30 40 30q46 0 48 -34l59 6q-6 76 -103 76q-104 0 -104 -86q0 -62 68 -78l40 -8q42 -10 42 -37q0 -33 -64 -33q-78 0 -102 76l-21 60q-19 59 -46 82q-29 24 -87 24q-56 0 -97 -41 q-42 -42 -42 -109z" />
<glyph unicode="&#xf105;" horiz-adv-x="973" d="M16 358q0 168 114 283q116 117 278 117q56 0 92 -10v-228q-78 26 -157 -10q-71 -35 -103 -104q-32 -67 -6 -132q26 -60 98 -80q70 -20 142 15q53 27 89 82t36 125v292q15 -6 25 -14q178 -110 317 -116q34 -2 4 -54q-43 -78 -133 -108l-12 -4q4 -29 4 -54 q0 -162 -116 -281q-114 -118 -280 -118q-162 0 -277 118q-115 119 -115 281z" />
<glyph unicode="&#xf106;" horiz-adv-x="1013" d="M16 358q0 206 143 349t348 143q201 0 347 -144q144 -143 144 -348q0 -202 -144 -346.5t-347 -144.5q-206 0 -349 145t-142 346zM284 358q0 -82 58 -141t140 -59t141.5 59t59.5 141q0 4 -1 14t-1 13q55 17 73 61q13 23 -4 23q-74 5 -159 59q-1 2 -6 5t-7 3v-149 q0 -76 -63 -103q-37 -18 -72 -8t-49 42q-16 36 4 69t52 47q36 20 80 6v115q-24 6 -48 6q-82 0 -140 -59.5t-58 -143.5z" />
<glyph unicode="&#xf107;" horiz-adv-x="931" d="M16 358q0 189 131 320t319 131q186 0 318 -132t132 -319q0 -118 -54 -214.5t-140 -155.5q-104 174 -318 180q-166 6 -278 -106q-110 126 -110 296zM177 538q11 -38 51 -28q96 35 256 22q157 -12 260 -73q36 -20 58 14q20 35 -14 57q-120 71 -296 84q-176 15 -288 -24 q-14 -4 -22.5 -19t-4.5 -33zM206 389q12 -33 43 -23q118 34 239.5 18t204.5 -68q29 -20 47 10t-12 49q-104 63 -240 79q-141 15 -258 -20q-31 -10 -24 -45zM224 254q6 -28 33 -22q233 55 391 -42q24 -14 37 8q17 23 -8 40q-176 108 -433 48q-26 -8 -20 -32zM247 -35 q61 74 153 70q122 -6 176 -113q-68 -14 -110 -14q-116 0 -219 57z" />
<glyph unicode="&#xf108;" horiz-adv-x="1013" d="M16 358q0 206 143 349t348 143q201 0 347 -144q144 -143 144 -348q0 -128 -60 -234t-152 -169q-111 191 -346 197q-180 6 -304 -117q-121 141 -120 323zM192 555q6 -17 21 -27t36 -4q105 38 277 24q176 -14 284 -79q39 -25 64 15q20 38 -17 63q-130 76 -321 91 q-192 16 -314 -28q-16 -2 -27 -19t-3 -36zM224 393q10 -34 48 -27q113 36 249.5 20t232.5 -74q34 -21 52 12q18 34 -12 51q-106 65 -251 85t-294 -20q-35 -10 -25 -47zM242 244q8 -31 38 -23q250 59 426 -47q26 -14 40 10q15 27 -10 42q-192 116 -471 54q-31 -6 -23 -36z M268 -70q66 75 169 74q134 -5 191 -120q-60 -17 -121 -17q-128 0 -239 63z" />
<glyph unicode="&#xf109;" horiz-adv-x="974" d="M46 522q68 186 244 266q20 8 45 17q-87 -79 -126 -174q-40 -97 -33 -183q6 -78 15 -123t29 -89q16 -38 0.5 -66t-47.5 -43q-38 -17 -68.5 -6.5t-44.5 41.5q-82 177 -14 360zM177 6q157 -50 283 -7q118 39 185 103q44 42 55 52q18 21 28 36q20 30 54 34t65 -19 q29 -21 38 -50.5t-11 -66.5q-112 -158 -306 -192q-191 -34 -352 80q-26 18 -39 30zM324 264q-22 10 4 68q18 40 36 47v6q0 11 8 25v2q0 6 2 12q4 51 34 83.5t80 32.5t80.5 -33t32.5 -83q2 -6 2 -12v-2q8 -8 9 -25v-6q17 -7 34 -47q26 -56 6 -68q-12 -6 -30 22 q-6 -28 -31 -46q27 -12 27 -27q0 -17 -20 -25t-44 -8q-53 0 -62 27h-8q-12 -27 -63 -27q-23 0 -43 8t-20 25q0 15 26 27q-24 19 -30 46q-19 -28 -30 -22zM444 749q4 37 26 60t60 21q194 -19 319 -168q125 -151 109 -344q-6 -40 -9 -50q-19 86 -65 160.5t-104 118.5 q-40 31 -99 59t-107 38q-14 3 -35.5 5.5t-32 4.5t-24 9t-22.5 20q-20 29 -16 66z" />
<glyph unicode="&#xf10a;" horiz-adv-x="911" d="M16 58v352h178q-4 -29 -4 -52q0 -109 78 -187q78 -79 188 -79q108 0 187 79t79 187q0 27 -6 52h180v-352q0 -58 -40.5 -99t-96.5 -41h-607q-56 0 -96 41t-40 99zM16 512v150q0 57 40 96.5t96 39.5h607q57 0 97 -39.5t40 -96.5v-150h-223q-80 112 -217 112 q-142 0 -218 -112h-222zM292 358q0 69 48 116.5t116 47.5t116 -47.5t48 -116.5q0 -66 -49 -115t-115.5 -49t-115 49t-48.5 115zM702 628q0 -8 7.5 -16t16.5 -8h74q24 0 24 24v74q0 25 -24 25h-74q-24 0 -24 -25v-74z" />
<glyph unicode="&#xf10b;" horiz-adv-x="1013" d="M16 643l292 183l199 -162l-291 -189zM38 332l178 143l291 -182l-181 -149zM198 88v47l120 -79q6 -2 13 -3q10 0 14 5l162 134l163 -134q4 -4 15 -5q7 1 13 3l118 79v-47l-309 -194zM507 293l293 182l178 -143l-289 -188zM507 664l201 162l290 -183l-198 -168z" />
<glyph unicode="&#xf10c;" horiz-adv-x="815" d="M16 635l180 176q-4 -126 -4 -153q0 -23 -29 -23h-147zM20 516q0 35 59 31h119q80 0 80 73q0 8 -1 57t-1 58q0 84 40 84q92 0 124 -14q16 -7 28 -24.5t14 -36.5l4 -15l207 -12q31 0 61 -18.5t30 -46.5v-10t2 -27t2 -39q15 -192 8 -322q-4 -108 -19 -180.5t-52 -123.5 q-39 -52 -93 -52q-156 0 -199 26q-27 20 -19 134q2 40 38 60t72 19l34 -2l-4 -71q-16 -2 -39 -2q-19 0 -25 -27q-4 -38 42 -43l88 4q38 5 28 139q-4 31 -53 40q-71 10 -99 17q-46 14 -74 67q-9 17 -11.5 17t-8.5 -59t-30 -59q-46 0 -142 15q-98 15 -118 36q-34 35 -64 153 q-28 115 -28 154zM536 354q4 -4 9 -5t8 -0.5t11 3t14 2.5q17 4 32 4q17 0 60 -16q10 -4 15 0q6 6 -2 33q-8 29 -30 54t-50 25q-27 0 -45 -22t-22 -48q-6 -24 0 -30z" />
<glyph unicode="&#xf10d;" horiz-adv-x="849" d="M16 35v424q0 309 284 309h452l-319 -318q-6 -6 -10 -6q-8 0 -13 10v132q-96 0 -114 -2q-96 -17 -96 -150v-215zM100 -51l319 319q1 6 8 6q8 0 13 -10v-131q96 0 114 2q96 17 96 149v216l184 184v-424q0 -312 -284 -311h-450z" />
<glyph unicode="&#xf10e;" horiz-adv-x="972" d="M16 584q0 109 75 188q75 78 185 78q76 0 138 -41q36 8 78 8q188 0 318 -135q131 -136 131 -328q0 -50 -10 -98q27 -62 27 -121q0 -111 -77 -189.5t-183 -78.5q-63 0 -124 33q-57 -8 -82 -8q-186 0 -318 135t-132 327q0 48 10 92q-37 62 -36 138zM226 223q0 -46 31 -87 t71 -64q66 -36 162 -35q80 0 142 25q62 28 90 71q30 47 30 103q0 46 -16 82q-17 31 -51 54q-38 24 -78 38q-76 21 -98 26q-99 14 -125 52q-10 10 -10 26q0 24 28 43q27 21 78.5 21t75.5 -19q28 -25 39 -51q19 -28 27 -37q17 -13 38 -12q27 0 46.5 19.5t19.5 45.5 q0 20 -14 54q-18 24 -44 48q-27 22 -75 40q-51 14 -105 14q-76 0 -130 -22q-54 -20 -87 -59t-33 -97q0 -54 30 -92q34 -40 77 -58q49 -22 119 -36q9 -2 82 -21q30 -10 47 -29q19 -14 19 -43q0 -39 -38 -60t-88 -21q-73 0 -102 40q-26 46 -26 48q-8 23 -25 40q-21 15 -41 14 q-26 0 -46 -17.5t-20 -43.5z" />
<glyph unicode="&#xf10f;" horiz-adv-x="1013" d="M16 358q0 206 144 348q145 144 347 144q205 0 348 -143.5t143 -348.5q0 -201 -143 -346t-348 -145q-203 0 -347 144.5t-144 346.5zM242 486q0 -40 21 -78q-4 -16 -4 -52q0 -106 73.5 -182t176.5 -76q35 0 47 4q30 -18 70 -18q59 0 102 44.5t43 105.5q0 36 -17 67 q6 29 7 55q0 107 -73.5 182.5t-178.5 75.5q-25 0 -43 -2q-35 23 -76 23q-60 0 -104 -44.5t-44 -104.5zM362 282q0 -21 16 -46q43 -58 131 -58q40 0 80 14q37 19 49 42q18 24 18 57q0 27 -9.5 46t-30 30.5t-38 17.5t-48 13.5t-46.5 13.5q-4 2 -11 4t-9 3t-6 3.5t-8 7.5 q-6 6 -6 16q0 16 18 26t41 10q33 0 43 -11q12 -10 22 -29q6 -12 14 -20q12 -6 23 -6q15 0 25 10t10 24q0 15 -6 32q-5 8 -24 28q-22 16 -44 20q-24 8 -57 8q-88 0 -123 -46q-18 -23 -18 -52q0 -30 16 -53q20 -21 43 -33q50 -17 91 -26q34 -6 48 -21q10 -7 10 -25 q0 -21 -20 -32.5t-49 -11.5q-19 0 -37 6q-24 13 -35 42q-6 18 -14 23q-8 8 -23 9q-13 0 -26 -11q-10 -10 -10 -25z" />
</font>
</defs>
</svg>
